  0
SECTION
  2
HEADER
  9
$ACADVER
  1
AC1018
  9
$ACADMAINTVER
 70
     0
  9
$DWGCODEPAGE
  3
ANSI_1252
  9
$INSBASE
 10
0.0
 20
0.0
 30
0.0
  9
$EXTMIN
 10
-150.9999991528357
 20
-104.0933310916225
 30
0.0
  9
$EXTMAX
 10
146.0000008471624
 20
105.9066689083776
 30
0.0
  9
$LIMMIN
 10
0.0
 20
0.0
  9
$LIMMAX
 10
12.0
 20
9.0
  9
$ORTHOMODE
 70
     0
  9
$REGENMODE
 70
     1
  9
$FILLMODE
 70
     1
  9
$QTEXTMODE
 70
     0
  9
$MIRRTEXT
 70
     1
  9
$LTSCALE
 40
1.0
  9
$ATTMODE
 70
     1
  9
$TEXTSIZE
 40
0.2
  9
$TRACEWID
 40
0.05
  9
$TEXTSTYLE
  7
Standard
  9
$CLAYER
  8
0
  9
$CELTYPE
  6
ByLayer
  9
$CECOLOR
 62
   256
  9
$CELTSCALE
 40
1.0
  9
$DISPSILH
 70
     0
  9
$DIMSCALE
 40
1.0
  9
$DIMASZ
 40
0.18
  9
$DIMEXO
 40
0.0625
  9
$DIMDLI
 40
0.38
  9
$DIMRND
 40
0.0
  9
$DIMDLE
 40
0.0
  9
$DIMEXE
 40
0.18
  9
$DIMTP
 40
0.0
  9
$DIMTM
 40
0.0
  9
$DIMTXT
 40
0.18
  9
$DIMCEN
 40
0.09
  9
$DIMTSZ
 40
0.0
  9
$DIMTOL
 70
     0
  9
$DIMLIM
 70
     0
  9
$DIMTIH
 70
     1
  9
$DIMTOH
 70
     1
  9
$DIMSE1
 70
     0
  9
$DIMSE2
 70
     0
  9
$DIMTAD
 70
     0
  9
$DIMZIN
 70
     0
  9
$DIMBLK
  1

  9
$DIMASO
 70
     1
  9
$DIMSHO
 70
     1
  9
$DIMPOST
  1

  9
$DIMAPOST
  1

  9
$DIMALT
 70
     0
  9
$DIMALTD
 70
     2
  9
$DIMALTF
 40
25.4
  9
$DIMLFAC
 40
1.0
  9
$DIMTOFL
 70
     0
  9
$DIMTVP
 40
0.0
  9
$DIMTIX
 70
     0
  9
$DIMSOXD
 70
     0
  9
$DIMSAH
 70
     0
  9
$DIMBLK1
  1

  9
$DIMBLK2
  1

  9
$DIMSTYLE
  2
Standard
  9
$DIMCLRD
 70
     0
  9
$DIMCLRE
 70
     0
  9
$DIMCLRT
 70
     0
  9
$DIMTFAC
 40
1.0
  9
$DIMGAP
 40
0.09
  9
$DIMJUST
 70
     0
  9
$DIMSD1
 70
     0
  9
$DIMSD2
 70
     0
  9
$DIMTOLJ
 70
     1
  9
$DIMTZIN
 70
     0
  9
$DIMALTZ
 70
     0
  9
$DIMALTTZ
 70
     0
  9
$DIMUPT
 70
     0
  9
$DIMDEC
 70
     4
  9
$DIMTDEC
 70
     4
  9
$DIMALTU
 70
     2
  9
$DIMALTTD
 70
     2
  9
$DIMTXSTY
  7
Standard
  9
$DIMAUNIT
 70
     0
  9
$DIMADEC
 70
     0
  9
$DIMALTRND
 40
0.0
  9
$DIMAZIN
 70
     0
  9
$DIMDSEP
 70
    46
  9
$DIMATFIT
 70
     3
  9
$DIMFRAC
 70
     0
  9
$DIMLDRBLK
  1

  9
$DIMLUNIT
 70
     2
  9
$DIMLWD
 70
    -2
  9
$DIMLWE
 70
    -2
  9
$DIMTMOVE
 70
     0
  9
$LUNITS
 70
     2
  9
$LUPREC
 70
     4
  9
$SKETCHINC
 40
0.1
  9
$FILLETRAD
 40
0.5
  9
$AUNITS
 70
     0
  9
$AUPREC
 70
     0
  9
$MENU
  1
.
  9
$ELEVATION
 40
0.0
  9
$PELEVATION
 40
0.0
  9
$THICKNESS
 40
0.0
  9
$LIMCHECK
 70
     0
  9
$CHAMFERA
 40
0.5
  9
$CHAMFERB
 40
0.5
  9
$CHAMFERC
 40
1.0
  9
$CHAMFERD
 40
0.0
  9
$SKPOLY
 70
     0
  9
$TDCREATE
 40
2458198.297076227
  9
$TDUCREATE
 40
2458198.25540956
  9
$TDUPDATE
 40
2458198.297076586
  9
$TDUUPDATE
 40
2458198.255409919
  9
$TDINDWG
 40
0.0000000116
  9
$TDUSRTIMER
 40
0.0000000116
  9
$USRTIMER
 70
     1
  9
$ANGBASE
 50
0.0
  9
$ANGDIR
 70
     0
  9
$PDMODE
 70
     0
  9
$PDSIZE
 40
0.0
  9
$PLINEWID
 40
0.0
  9
$SPLFRAME
 70
     0
  9
$SPLINETYPE
 70
     6
  9
$SPLINESEGS
 70
     8
  9
$HANDSEED
  5
254
  9
$SURFTAB1
 70
     6
  9
$SURFTAB2
 70
     6
  9
$SURFTYPE
 70
     6
  9
$SURFU
 70
     6
  9
$SURFV
 70
     6
  9
$UCSBASE
  2

  9
$UCSNAME
  2

  9
$UCSORG
 10
0.0
 20
0.0
 30
0.0
  9
$UCSXDIR
 10
1.0
 20
0.0
 30
0.0
  9
$UCSYDIR
 10
0.0
 20
1.0
 30
0.0
  9
$UCSORTHOREF
  2

  9
$UCSORTHOVIEW
 70
     0
  9
$UCSORGTOP
 10
0.0
 20
0.0
 30
0.0
  9
$UCSORGBOTTOM
 10
0.0
 20
0.0
 30
0.0
  9
$UCSORGLEFT
 10
0.0
 20
0.0
 30
0.0
  9
$UCSORGRIGHT
 10
0.0
 20
0.0
 30
0.0
  9
$UCSORGFRONT
 10
0.0
 20
0.0
 30
0.0
  9
$UCSORGBACK
 10
0.0
 20
0.0
 30
0.0
  9
$PUCSBASE
  2

  9
$PUCSNAME
  2

  9
$PUCSORG
 10
0.0
 20
0.0
 30
0.0
  9
$PUCSXDIR
 10
1.0
 20
0.0
 30
0.0
  9
$PUCSYDIR
 10
0.0
 20
1.0
 30
0.0
  9
$PUCSORTHOREF
  2

  9
$PUCSORTHOVIEW
 70
     0
  9
$PUCSORGTOP
 10
0.0
 20
0.0
 30
0.0
  9
$PUCSORGBOTTOM
 10
0.0
 20
0.0
 30
0.0
  9
$PUCSORGLEFT
 10
0.0
 20
0.0
 30
0.0
  9
$PUCSORGRIGHT
 10
0.0
 20
0.0
 30
0.0
  9
$PUCSORGFRONT
 10
0.0
 20
0.0
 30
0.0
  9
$PUCSORGBACK
 10
0.0
 20
0.0
 30
0.0
  9
$USERI1
 70
     0
  9
$USERI2
 70
     0
  9
$USERI3
 70
     0
  9
$USERI4
 70
     0
  9
$USERI5
 70
     0
  9
$USERR1
 40
18.1
  9
$USERR2
 40
0.0
  9
$USERR3
 40
0.0
  9
$USERR4
 40
0.0
  9
$USERR5
 40
0.0
  9
$WORLDVIEW
 70
     1
  9
$SHADEDGE
 70
     3
  9
$SHADEDIF
 70
    70
  9
$TILEMODE
 70
     1
  9
$MAXACTVP
 70
    64
  9
$PINSBASE
 10
0.0
 20
0.0
 30
0.0
  9
$PLIMCHECK
 70
     0
  9
$PEXTMIN
 10
1.00000000000000E+20
 20
1.00000000000000E+20
 30
1.00000000000000E+20
  9
$PEXTMAX
 10
-1.00000000000000E+20
 20
-1.00000000000000E+20
 30
-1.00000000000000E+20
  9
$PLIMMIN
 10
0.0
 20
0.0
  9
$PLIMMAX
 10
12.0
 20
9.0
  9
$UNITMODE
 70
     0
  9
$VISRETAIN
 70
     1
  9
$PLINEGEN
 70
     0
  9
$PSLTSCALE
 70
     1
  9
$TREEDEPTH
 70
  3020
  9
$CMLSTYLE
  2
Standard
  9
$CMLJUST
 70
     0
  9
$CMLSCALE
 40
1.0
  9
$PROXYGRAPHICS
 70
     1
  9
$MEASUREMENT
 70
     1
  9
$CELWEIGHT
370
    -1
  9
$ENDCAPS
280
     0
  9
$JOINSTYLE
280
     0
  9
$LWDISPLAY
290
     0
  9
$INSUNITS
 70
     4
  9
$HYPERLINKBASE
  1

  9
$STYLESHEET
  1

  9
$XEDIT
290
     1
  9
$CEPSNTYPE
380
     0
  9
$PSTYLEMODE
290
     1
  9
$FINGERPRINTGUID
  2
{1960C3A8-2781-471E-B0EE-F6CD13CDEA29}
  9
$VERSIONGUID
  2
{FAEB1C32-E019-11D5-929B-00C0DF256EC4}
  9
$EXTNAMES
290
     1
  9
$PSVPSCALE
 40
0.0
  9
$OLESTARTUP
290
     0
  9
$SORTENTS
280
   127
  9
$INDEXCTL
280
     0
  9
$HIDETEXT
280
     1
  9
$XCLIPFRAME
290
     0
  9
$HALOGAP
280
     0
  9
$OBSCOLOR
 70
   257
  9
$OBSLTYPE
280
     0
  9
$INTERSECTIONDISPLAY
280
     0
  9
$INTERSECTIONCOLOR
 70
   257
  9
$DIMASSOC
280
     2
  9
$PROJECTNAME
  1

  0
ENDSEC
  0
SECTION
  2
CLASSES
  0
CLASS
  1
ACDBDICTIONARYWDFLT
  2
AcDbDictionaryWithDefault
  3
ObjectDBX Classes
 90
        0
 91
        4
280
     0
281
     0
  0
CLASS
  1
VISUALSTYLE
  2
AcDbVisualStyle
  3
ObjectDBX Classes
 90
     4095
 91
        4
280
     0
281
     0
  0
CLASS
  1
MATERIAL
  2
AcDbMaterial
  3
ObjectDBX Classes
 90
     1153
 91
        4
280
     0
281
     0
  0
ENDSEC
  0
SECTION
  2
TABLES
  0
TABLE
  2
VPORT
  5
8
330
0
100
AcDbSymbolTable
 70
     1
  0
VPORT
  5
29
330
8
100
AcDbSymbolTableRecord
100
AcDbViewportTableRecord
  2
*Active
 70
     0
 10
0.0
 20
0.0
 11
1.0
 21
1.0
 12
-2.49999915283665
 22
0.90666890837755
 13
0.0
 23
0.0
 14
0.5
 24
0.5
 15
0.5
 25
0.5
 16
0.0
 26
0.0
 36
1.0
 17
0.0
 27
0.0
 37
0.0
 40
231.0000000000001
 41
1.60267857142857
 42
50.0
 43
0.0
 44
0.0
 50
0.0
 51
0.0
 71
     0
 72
   100
 73
     1
 74
     3
 75
     0
 76
     0
 77
     0
 78
     0
281
     0
 65
     1
110
0.0
120
0.0
130
0.0
111
1.0
121
0.0
131
0.0
112
0.0
122
1.0
132
0.0
 79
     0
146
0.0
  0
ENDTAB
  0
TABLE
  2
LTYPE
  5
5
330
0
100
AcDbSymbolTable
 70
     8
  0
LTYPE
  5
14
330
5
100
AcDbSymbolTableRecord
100
AcDbLinetypeTableRecord
  2
ByBlock
 70
     0
  3

 72
    65
 73
     0
 40
0.0
  0
LTYPE
  5
15
330
5
100
AcDbSymbolTableRecord
100
AcDbLinetypeTableRecord
  2
ByLayer
 70
     0
  3

 72
    65
 73
     0
 40
0.0
  0
LTYPE
  5
16
330
5
100
AcDbSymbolTableRecord
100
AcDbLinetypeTableRecord
  2
Continuous
 70
     0
  3
Solid line
 72
    65
 73
     0
 40
0.0
  0
LTYPE
  5
3F
330
5
100
AcDbSymbolTableRecord
100
AcDbLinetypeTableRecord
  2
DASHED
 70
     0
  3
Dashed
 72
    65
 73
     2
 40
15.0
 49
7.0
 74
     0
 49
-8.0
 74
     0
  0
LTYPE
  5
40
330
5
100
AcDbSymbolTableRecord
100
AcDbLinetypeTableRecord
  2
DOTTED
 70
     0
  3
Dotted
 72
    65
 73
     2
 40
1.0
 49
0.0
 74
     0
 49
-1.0
 74
     0
  0
LTYPE
  5
41
330
5
100
AcDbSymbolTableRecord
100
AcDbLinetypeTableRecord
  2
DOT_CENTER
 70
     0
  3
Dot_Center
 72
    65
 73
     4
 40
14.0
 49
12.0
 74
     0
 49
-1.0
 74
     0
 49
0.0
 74
     0
 49
-1.0
 74
     0
  0
LTYPE
  5
42
330
5
100
AcDbSymbolTableRecord
100
AcDbLinetypeTableRecord
  2
LONG_DASHED
 70
     0
  3
Long_Dashed
 72
    65
 73
     2
 40
15.0
 49
10.0
 74
     0
 49
-5.0
 74
     0
  0
LTYPE
  5
43
330
5
100
AcDbSymbolTableRecord
100
AcDbLinetypeTableRecord
  2
DASH_CENTER
 70
     0
  3
Dash_Center
 72
    65
 73
     4
 40
14.0
 49
11.0
 74
     0
 49
-1.0
 74
     0
 49
1.0
 74
     0
 49
-1.0
 74
     0
  0
LTYPE
  5
44
330
5
100
AcDbSymbolTableRecord
100
AcDbLinetypeTableRecord
  2
PHANTOM
 70
     0
  3
Phantom
 72
    65
 73
     6
 40
13.0
 49
10.0
 74
     0
 49
-1.0
 74
     0
 49
0.0
 74
     0
 49
-1.0
 74
     0
 49
0.0
 74
     0
 49
-1.0
 74
     0
  0
LTYPE
  5
45
330
5
100
AcDbSymbolTableRecord
100
AcDbLinetypeTableRecord
  2
CENTER_DASH_DASH
 70
     0
  3
Center_Dash_Dash
 72
    65
 73
     6
 40
14.0
 49
9.0
 74
     0
 49
-1.0
 74
     0
 49
1.0
 74
     0
 49
-1.0
 74
     0
 49
1.0
 74
     0
 49
-1.0
 74
     0
  0
ENDTAB
  0
TABLE
  2
LAYER
  5
2
330
0
100
AcDbSymbolTable
 70
     2
  0
LAYER
  5
10
330
2
100
AcDbSymbolTableRecord
100
AcDbLayerTableRecord
  2
0
 70
     0
 62
     7
  6
Continuous
370
    -3
390
F
  0
LAYER
  5
46
330
2
100
AcDbSymbolTableRecord
100
AcDbLayerTableRecord
  2
1
 70
     0
 62
     7
  6
Continuous
370
    -3
390
F
  0
ENDTAB
  0
TABLE
  2
STYLE
  5
3
330
0
100
AcDbSymbolTable
 70
     5
  0
STYLE
  5
11
330
3
100
AcDbSymbolTableRecord
100
AcDbTextStyleTableRecord
  2
Standard
 70
     0
 40
0.0
 41
1.0
 50
0.0
 71
     0
 42
0.2
  3
txt
  4

  0
STYLE
  5
9A
330
3
100
AcDbSymbolTableRecord
100
AcDbTextStyleTableRecord
  2
CONVERTER_11
 70
     0
 40
0.0
 41
0.9
 50
0.0
 71
     0
 42
0.2
  3
txt.shx
  4

  0
STYLE
  5
1EA
330
3
100
AcDbSymbolTableRecord
100
AcDbTextStyleTableRecord
  2
CONVERTER_12
 70
     0
 40
0.0
 41
0.81
 50
0.0
 71
     0
 42
0.2
  3
txt.shx
  4

  0
STYLE
  5
1F0
330
3
100
AcDbSymbolTableRecord
100
AcDbTextStyleTableRecord
  2
CONVERTER_13
 70
     0
 40
0.0
 41
0.855
 50
0.0
 71
     0
 42
0.2
  3
txt.shx
  4

  0
STYLE
  5
1F3
330
3
100
AcDbSymbolTableRecord
100
AcDbTextStyleTableRecord
  2
CONVERTER_14
 70
     0
 40
0.0
 41
0.72
 50
0.0
 71
     0
 42
0.2
  3
txt.shx
  4

  0
ENDTAB
  0
TABLE
  2
VIEW
  5
6
330
0
100
AcDbSymbolTable
 70
     0
  0
ENDTAB
  0
TABLE
  2
UCS
  5
7
330
0
100
AcDbSymbolTable
 70
     0
  0
ENDTAB
  0
TABLE
  2
APPID
  5
9
330
0
100
AcDbSymbolTable
 70
     1
  0
APPID
  5
12
330
9
100
AcDbSymbolTableRecord
100
AcDbRegAppTableRecord
  2
ACAD
 70
     0
  0
ENDTAB
  0
TABLE
  2
DIMSTYLE
  5
A
330
0
100
AcDbSymbolTable
 70
     4
100
AcDbDimStyleTable
  0
DIMSTYLE
105
27
330
A
100
AcDbSymbolTableRecord
100
AcDbDimStyleTableRecord
  2
Standard
 70
     0
178
     0
340
11
  0
DIMSTYLE
105
B2
102
{ACAD_REACTORS
330
B3
102
}
330
A
100
AcDbSymbolTableRecord
100
AcDbDimStyleTableRecord
  2
ME10_DIM_10
 70
     0
 41
3.5
 42
0.0
 44
1.5
 73
     0
 74
     0
 77
     1
 78
     8
140
3.5
147
1.5
172
     1
173
     1
174
     1
175
     1
176
     2
177
     2
178
     3
340
9A
  0
DIMSTYLE
105
E6
102
{ACAD_REACTORS
330
E7
102
}
330
A
100
AcDbSymbolTableRecord
100
AcDbDimStyleTableRecord
  2
ME10_DIM_11
 70
     0
 41
3.5
 42
0.0
 44
1.5
 73
     0
 74
     0
 77
     1
 78
     8
140
3.5
147
1.5
172
     1
173
     1
174
     1
175
     1
176
     2
177
     2
271
     1
178
     3
271
     1
340
9A
  0
DIMSTYLE
105
F1
102
{ACAD_REACTORS
330
F2
102
}
330
A
100
AcDbSymbolTableRecord
100
AcDbDimStyleTableRecord
  2
ME10_DIM_12
 70
     0
 41
3.5
 42
0.0
 44
2.0
 73
     0
 74
     0
 77
     1
 78
     8
140
3.5
147
2.0
172
     1
173
     1
174
     1
175
     1
176
     2
177
     2
178
     3
340
9A
  0
ENDTAB
  0
TABLE
  2
BLOCK_RECORD
  5
1
330
0
100
AcDbSymbolTable
 70
    20
  0
BLOCK_RECORD
  5
1F
330
1
100
AcDbSymbolTableRecord
100
AcDbBlockTableRecord
  2
*Model_Space
340
22
  0
BLOCK_RECORD
  5
1B
330
1
100
AcDbSymbolTableRecord
100
AcDbBlockTableRecord
  2
*Paper_Space
340
1E
  0
BLOCK_RECORD
  5
23
330
1
100
AcDbSymbolTableRecord
100
AcDbBlockTableRecord
  2
*Paper_Space0
340
26
  0
BLOCK_RECORD
  5
47
330
1
100
AcDbSymbolTableRecord
100
AcDbBlockTableRecord
  2
d_sts4_twin_l_select__1
340
0
102
{BLKREFS
331
4B
102
}
  0
BLOCK_RECORD
  5
4A
330
1
100
AcDbSymbolTableRecord
100
AcDbBlockTableRecord
  2
AllgSicht1
340
0
102
{BLKREFS
331
7D
102
}
  0
BLOCK_RECORD
  5
4E
330
1
100
AcDbSymbolTableRecord
100
AcDbBlockTableRecord
  2
d_sts4_twin_l_select__2
340
0
102
{BLKREFS
331
52
102
}
  0
BLOCK_RECORD
  5
51
330
1
100
AcDbSymbolTableRecord
100
AcDbBlockTableRecord
  2
Drfsicht1
340
0
102
{BLKREFS
331
7E
102
}
  0
BLOCK_RECORD
  5
55
330
1
100
AcDbSymbolTableRecord
100
AcDbBlockTableRecord
  2
d_sts4_twin_l_select__3
340
0
102
{BLKREFS
331
59
102
}
  0
BLOCK_RECORD
  5
58
330
1
100
AcDbSymbolTableRecord
100
AcDbBlockTableRecord
  2
Rckans1
340
0
102
{BLKREFS
331
7F
102
}
  0
BLOCK_RECORD
  5
5C
330
1
100
AcDbSymbolTableRecord
100
AcDbBlockTableRecord
  2
d_sts4_twin_l_select__4
340
0
102
{BLKREFS
331
60
102
}
  0
BLOCK_RECORD
  5
5F
330
1
100
AcDbSymbolTableRecord
100
AcDbBlockTableRecord
  2
SA_Links1
340
0
102
{BLKREFS
331
80
102
}
  0
BLOCK_RECORD
  5
63
330
1
100
AcDbSymbolTableRecord
100
AcDbBlockTableRecord
  2
d_sts4_twin_l_select__5
340
0
102
{BLKREFS
331
67
102
}
  0
BLOCK_RECORD
  5
66
330
1
100
AcDbSymbolTableRecord
100
AcDbBlockTableRecord
  2
SA_Rechts1
340
0
102
{BLKREFS
331
81
102
}
  0
BLOCK_RECORD
  5
6A
330
1
100
AcDbSymbolTableRecord
100
AcDbBlockTableRecord
  2
d_sts4_twin_l_select__6
340
0
102
{BLKREFS
331
6E
102
}
  0
BLOCK_RECORD
  5
6D
330
1
100
AcDbSymbolTableRecord
100
AcDbBlockTableRecord
  2
Vordans1
340
0
102
{BLKREFS
331
82
102
}
  0
BLOCK_RECORD
  5
71
330
1
100
AcDbSymbolTableRecord
100
AcDbBlockTableRecord
  2
_rahmen
340
0
102
{BLKREFS
331
78
102
}
  0
BLOCK_RECORD
  5
74
330
1
100
AcDbSymbolTableRecord
100
AcDbBlockTableRecord
  2
_punkt
340
0
102
{BLKREFS
331
79
102
}
  0
BLOCK_RECORD
  5
77
330
1
100
AcDbSymbolTableRecord
100
AcDbBlockTableRecord
  2
A4I_CS
340
0
102
{BLKREFS
331
83
102
}
  0
BLOCK_RECORD
  5
7C
330
1
100
AcDbSymbolTableRecord
100
AcDbBlockTableRecord
  2
1
340
0
102
{BLKREFS
331
86
102
}
  0
BLOCK_RECORD
  5
A7
330
1
100
AcDbSymbolTableRecord
100
AcDbBlockTableRecord
  2
*D17
340
0
  0
BLOCK_RECORD
  5
DC
330
1
100
AcDbSymbolTableRecord
100
AcDbBlockTableRecord
  2
*D18
340
0
  0
BLOCK_RECORD
  5
E8
330
1
100
AcDbSymbolTableRecord
100
AcDbBlockTableRecord
  2
*D19
340
0
  0
ENDTAB
  0
ENDSEC
  0
SECTION
  2
BLOCKS
  0
BLOCK
  5
20
330
1F
100
AcDbEntity
  8
0
100
AcDbBlockBegin
  2
*Model_Space
 70
     0
 10
0.0
 20
0.0
 30
0.0
  3
*Model_Space
  1

  0
ENDBLK
  5
21
330
1F
100
AcDbEntity
  8
0
100
AcDbBlockEnd
  0
BLOCK
  5
1C
330
1B
100
AcDbEntity
 67
     1
  8
0
100
AcDbBlockBegin
  2
*Paper_Space
 70
     0
 10
0.0
 20
0.0
 30
0.0
  3
*Paper_Space
  1

  0
ENDBLK
  5
1D
330
1B
100
AcDbEntity
 67
     1
  8
0
100
AcDbBlockEnd
  0
BLOCK
  5
24
330
23
100
AcDbEntity
  8
0
100
AcDbBlockBegin
  2
*Paper_Space0
 70
     0
 10
0.0
 20
0.0
 30
0.0
  3
*Paper_Space0
  1

  0
ENDBLK
  5
25
330
23
100
AcDbEntity
  8
0
100
AcDbBlockEnd
  0
BLOCK
  5
48
330
47
100
AcDbEntity
  8
0
100
AcDbBlockBegin
  2
d_sts4_twin_l_select__1
 70
     0
 10
40.7773779944679
 20
-41.76779262014581
 30
0.0
  3
d_sts4_twin_l_select__1
  1

  0
LINE
  5
87
330
47
100
AcDbEntity
  8
0
  6
Continuous
 62
     7
100
AcDbLine
 10
96.72261907894507
 20
-31.38300487836509
 30
0.0
 11
97.8226190789451
 21
-30.43037693420222
 31
0.0
  0
LINE
  5
88
330
47
100
AcDbEntity
  8
0
  6
Continuous
 62
     7
100
AcDbLine
 10
89.5558472341652
 20
-41.76779262014581
 30
0.0
 11
90.6558472341652
 21
-40.81516467598293
 31
0.0
  0
LINE
  5
89
330
47
100
AcDbEntity
  8
0
  6
Continuous
 62
     7
100
AcDbLine
 10
89.5558472341652
 20
-41.76779262014581
 30
0.0
 11
96.72261907894507
 21
-31.38300487836509
 31
0.0
  0
LINE
  5
8A
330
47
100
AcDbEntity
  8
0
  6
Continuous
 62
     7
100
AcDbLine
 10
90.6558472341652
 20
-40.81516467598293
 30
0.0
 11
97.8226190789451
 21
-30.43037693420222
 31
0.0
  0
LINE
  5
8B
330
47
100
AcDbEntity
  8
0
  6
Continuous
 62
     7
100
AcDbLine
 10
40.7773779944679
 20
-5.55815783503634
 30
0.0
 11
41.87737799446792
 21
-4.60552989087345
 31
0.0
  0
LINE
  5
8C
330
47
100
AcDbEntity
  8
0
  6
Continuous
 62
     7
100
AcDbLine
 10
63.97211302159708
 20
-3.81170794931028
 30
0.0
 11
65.07211302159709
 21
-2.85908000514739
 31
0.0
  0
LINE
  5
8D
330
47
100
AcDbEntity
  8
0
  6
Continuous
 62
     7
100
AcDbLine
 10
63.97211302159708
 20
-3.81170794931028
 30
0.0
 11
40.7773779944679
 21
-5.55815783503634
 31
0.0
  0
LINE
  5
8E
330
47
100
AcDbEntity
  8
0
  6
Continuous
 62
     7
100
AcDbLine
 10
65.07211302159709
 20
-2.85908000514739
 30
0.0
 11
41.87737799446792
 21
-4.60552989087345
 31
0.0
  0
LINE
  5
8F
330
47
100
AcDbEntity
  8
0
  6
Continuous
 62
     7
100
AcDbLine
 10
97.82261907894268
 20
-20.75552989085938
 30
0.0
 11
97.8226190789451
 21
-30.43037693420222
 31
0.0
  0
LINE
  5
90
330
47
100
AcDbEntity
  8
0
  6
Continuous
 62
     7
100
AcDbLine
 10
73.52788405181259
 20
-6.57022143761378
 30
0.0
 11
63.97211302159708
 21
-3.81170794931028
 31
0.0
  0
LINE
  5
91
330
47
100
AcDbEntity
  8
0
  6
Continuous
 62
     7
100
AcDbLine
 10
74.62788405181259
 20
-5.6175934934509
 30
0.0
 11
65.07211302159709
 21
-2.85908000514739
 31
0.0
  0
LINE
  5
92
330
47
100
AcDbEntity
  8
0
  6
Continuous
 62
     7
100
AcDbLine
 10
40.77737799447033
 20
-15.23300487837865
 30
0.0
 11
47.94414983924818
 21
-29.75553027395998
 31
0.0
  0
LINE
  5
93
330
47
100
AcDbEntity
  8
0
  6
Continuous
 62
     7
100
AcDbLine
 10
40.77737799447033
 20
-15.23300487837865
 30
0.0
 11
40.7773779944679
 21
-5.55815783503634
 31
0.0
  0
LINE
  5
94
330
47
100
AcDbEntity
  8
0
  6
Continuous
 62
     7
100
AcDbLine
 10
96.72261907894269
 20
-21.70815783502225
 30
0.0
 11
97.82261907894268
 21
-20.75552989085938
 31
0.0
  0
LINE
  5
95
330
47
100
AcDbEntity
  8
0
  6
Continuous
 62
     7
100
AcDbLine
 10
73.52788405181259
 20
-6.57022143761378
 30
0.0
 11
74.62788405181259
 21
-5.6175934934509
 31
0.0
  0
LINE
  5
96
330
47
100
AcDbEntity
  8
0
  6
Continuous
 62
     7
100
AcDbLine
 10
96.72261907894269
 20
-21.70815783502225
 30
0.0
 11
73.52788405181259
 21
-6.57022143761378
 31
0.0
  0
LINE
  5
97
330
47
100
AcDbEntity
  8
0
  6
Continuous
 62
     7
100
AcDbLine
 10
97.82261907894268
 20
-20.75552989085938
 30
0.0
 11
74.62788405181259
 21
-5.6175934934509
 31
0.0
  0
LINE
  5
98
330
47
100
AcDbEntity
  8
0
  6
Continuous
 62
     7
100
AcDbLine
 10
96.72261907894269
 20
-21.70815783502225
 30
0.0
 11
96.72261907894507
 21
-31.38300487836509
 31
0.0
  0
LINE
  5
99
330
47
100
AcDbEntity
  8
0
  6
Continuous
 62
     7
100
AcDbLine
 10
89.5558472341652
 20
-41.76779262014581
 30
0.0
 11
47.94414983924818
 21
-29.75553027395998
 31
0.0
  0
ENDBLK
  5
49
330
47
100
AcDbEntity
  8
0
100
AcDbBlockEnd
  0
BLOCK
  5
4C
330
4A
100
AcDbEntity
  8
0
100
AcDbBlockBegin
  2
AllgSicht1
 70
     0
 10
69.29999899999498
 20
-20.0
 30
0.0
  3
AllgSicht1
  1

  0
INSERT
  5
4B
330
4A
100
AcDbEntity
  8
0
100
AcDbBlockReference
  2
d_sts4_twin_l_select__1
 10
40.7773779944679
 20
-41.76779262014581
 30
0.0
  0
MTEXT
  5
9B
330
4A
100
AcDbEntity
  8
1
 62
     6
100
AcDbMText
 10
69.29999899999382
 20
-48.83666261239182
 30
0.0
 40
5.0
 41
0.0
 71
     2
 72
     1
  1
 
  7
CONVERTER_11
 73
     1
 44
1.32052821128451
  0
ENDBLK
  5
4D
330
4A
100
AcDbEntity
  8
0
100
AcDbBlockEnd
  0
BLOCK
  5
4F
330
4E
100
AcDbEntity
  8
0
100
AcDbBlockBegin
  2
d_sts4_twin_l_select__2
 70
     0
 10
-71.6000001684542
 20
-22.8500000286208
 30
0.0
  3
d_sts4_twin_l_select__2
  1

  0
LINE
  5
9C
330
4E
100
AcDbEntity
  8
0
  6
Continuous
 62
     7
100
AcDbLine
 10
-44.81702714506402
 20
-22.8500000286208
 30
0.0
 11
-71.6000001684542
 21
-22.8500000286208
 31
0.0
  0
LINE
  5
9D
330
4E
100
AcDbEntity
  8
0
  6
Continuous
 62
     7
100
AcDbLine
 10
-71.6000001684542
 20
-22.8500000286208
 30
0.0
 11
-71.6000001684542
 21
-20.6500000286208
 31
0.0
  0
LINE
  5
9E
330
4E
100
AcDbEntity
  8
0
  6
Continuous
 62
     7
100
AcDbLine
 10
-33.78297319184536
 20
-20.6500000286208
 30
0.0
 11
-44.81702714506402
 21
-20.6500000286208
 31
0.0
  0
LINE
  5
9F
330
4E
100
AcDbEntity
  8
0
  6
Continuous
 62
     7
100
AcDbLine
 10
-44.81702714506402
 20
-20.6500000286208
 30
0.0
 11
-71.6000001684542
 21
-20.6500000286208
 31
0.0
  0
LINE
  5
A0
330
4E
100
AcDbEntity
  8
0
  6
Continuous
 62
     7
100
AcDbLine
 10
-33.78297319184536
 20
-22.8500000286208
 30
0.0
 11
-44.81702714506402
 21
-22.8500000286208
 31
0.0
  0
LINE
  5
A1
330
4E
100
AcDbEntity
  8
0
  6
Continuous
 62
     7
100
AcDbLine
 10
-7.00000016845419
 20
-22.8500000286208
 30
0.0
 11
-33.78297319184536
 21
-22.8500000286208
 31
0.0
  0
LINE
  5
A2
330
4E
100
AcDbEntity
  8
0
  6
Continuous
 62
     7
100
AcDbLine
 10
-33.78297319184536
 20
-22.8500000286208
 30
0.0
 11
-33.78297319184536
 21
-20.6500000286208
 31
0.0
  0
LINE
  5
A3
330
4E
100
AcDbEntity
  8
0
  6
Continuous
 62
     7
100
AcDbLine
 10
-7.00000016845419
 20
-22.8500000286208
 30
0.0
 11
-7.00000016845419
 21
-20.6500000286208
 31
0.0
  0
LINE
  5
A4
330
4E
100
AcDbEntity
  8
0
  6
Continuous
 62
     7
100
AcDbLine
 10
-44.81702714506402
 20
-22.8500000286208
 30
0.0
 11
-44.81702714506402
 21
-20.6500000286208
 31
0.0
  0
LINE
  5
A5
330
4E
100
AcDbEntity
  8
0
  6
Continuous
 62
     7
100
AcDbLine
 10
-7.00000016845419
 20
-20.6500000286208
 30
0.0
 11
-33.78297319184536
 21
-20.6500000286208
 31
0.0
  0
ENDBLK
  5
50
330
4E
100
AcDbEntity
  8
0
100
AcDbBlockEnd
  0
BLOCK
  5
53
330
51
100
AcDbEntity
  8
0
100
AcDbBlockBegin
  2
Drfsicht1
 70
     0
 10
-39.29999923706117
 20
-21.75000071526142
 30
0.0
  3
Drfsicht1
  1

  0
INSERT
  5
52
330
51
100
AcDbEntity
  8
0
100
AcDbBlockReference
  2
d_sts4_twin_l_select__2
 10
-71.6000001684542
 20
-22.8500000286208
 30
0.0
  0
MTEXT
  5
A6
330
51
100
AcDbEntity
  8
1
 62
     6
100
AcDbMText
 10
-39.299999237061
 20
-27.85000109673138
 30
0.0
 40
5.0
 41
0.0
 71
     2
 72
     1
  1
 
  7
CONVERTER_11
 73
     1
 44
1.32052821128451
  0
DIMENSION
  5
B3
330
51
100
AcDbEntity
  8
1
100
AcDbDimension
  2
*D17
 10
-84.62831358494046
 20
-20.65000002862079
 30
0.0
 11
-88.05331358494045
 21
-5.08140257823993
 31
0.0
 70
    33
  1
<>
 71
     5
 42
-1.0
 53
90.0
  3
ME10_DIM_10
100
AcDbAlignedDimension
 13
-71.6000001684542
 23
-22.8500000286208
 33
0.0
 14
-71.6000001684542
 24
-20.6500000286208
 34
0.0
  0
ENDBLK
  5
54
330
51
100
AcDbEntity
  8
0
100
AcDbBlockEnd
  0
BLOCK
  5
56
330
55
100
AcDbEntity
  8
0
100
AcDbBlockBegin
  2
d_sts4_twin_l_select__3
 70
     0
 10
37.00000016845058
 20
20.35000042914057
 30
0.0
  3
d_sts4_twin_l_select__3
  1

  0
LINE
  5
B4
330
55
100
AcDbEntity
  8
0
  6
Continuous
 62
     7
100
AcDbLine
 10
63.7829731918446
 20
55.65000042914686
 30
0.0
 11
74.81702714506321
 21
55.65000042914551
 31
0.0
  0
LINE
  5
B5
330
55
100
AcDbEntity
  8
0
  6
Continuous
 62
     7
100
AcDbLine
 10
37.0000001684534
 20
45.90179546348512
 30
0.0
 11
63.7829731918446
 21
55.65000042914686
 31
0.0
  0
LINE
  5
B6
330
55
100
AcDbEntity
  8
0
  6
Continuous
 62
     7
100
AcDbLine
 10
45.27547547605917
 20
20.35000042915266
 30
0.0
 11
37.00000016845058
 21
34.73024437380104
 31
0.0
  0
LINE
  5
B7
330
55
100
AcDbEntity
  8
0
  6
Continuous
 62
     7
100
AcDbLine
 10
101.6000001684506
 20
34.7302443737854
 30
0.0
 11
101.6000001684534
 21
45.90179546346887
 31
0.0
  0
LINE
  5
B8
330
55
100
AcDbEntity
  8
0
  6
Continuous
 62
     7
100
AcDbLine
 10
101.6000001684506
 20
34.7302443737854
 30
0.0
 11
93.3245248608444
 21
20.35000042914057
 31
0.0
  0
LINE
  5
B9
330
55
100
AcDbEntity
  8
0
  6
Continuous
 62
     7
100
AcDbLine
 10
45.27547547605917
 20
20.35000042915266
 30
0.0
 11
93.3245248608444
 21
20.35000042914057
 31
0.0
  0
LINE
  5
BA
330
55
100
AcDbEntity
  8
0
  6
Continuous
 62
     7
100
AcDbLine
 10
37.0000001684534
 20
45.90179546348512
 30
0.0
 11
37.00000016845058
 21
34.73024437380104
 31
0.0
  0
LINE
  5
BB
330
55
100
AcDbEntity
  8
0
  6
Continuous
 62
     7
100
AcDbLine
 10
74.81702714506321
 20
55.65000042914551
 30
0.0
 11
101.6000001684534
 21
45.90179546346887
 31
0.0
  0
ENDBLK
  5
57
330
55
100
AcDbEntity
  8
0
100
AcDbBlockEnd
  0
BLOCK
  5
5A
330
58
100
AcDbEntity
  8
0
100
AcDbBlockBegin
  2
Rckans1
 70
     0
 10
69.2999992370604
 20
37.99999999999993
 30
0.0
  3
Rckans1
  1

  0
INSERT
  5
59
330
58
100
AcDbEntity
  8
0
100
AcDbBlockReference
  2
d_sts4_twin_l_select__3
 10
37.00000016845058
 20
20.35000042914057
 30
0.0
  0
MTEXT
  5
BC
330
58
100
AcDbEntity
  8
1
 62
     6
100
AcDbMText
 10
69.29999923706089
 20
15.34999966621308
 30
0.0
 40
5.0
 41
0.0
 71
     2
 72
     1
  1
 
  7
CONVERTER_11
 73
     1
 44
1.32052821128451
  0
ENDBLK
  5
5B
330
58
100
AcDbEntity
  8
0
100
AcDbBlockEnd
  0
BLOCK
  5
5D
330
5C
100
AcDbEntity
  8
0
100
AcDbBlockBegin
  2
d_sts4_twin_l_select__4
 70
     0
 10
13.89999931336938
 20
20.35000042914051
 30
0.0
  3
d_sts4_twin_l_select__4
  1

  0
LINE
  5
BD
330
5C
100
AcDbEntity
  8
0
  6
Continuous
 62
     7
100
AcDbLine
 10
13.89999931336938
 20
34.73024437378533
 30
0.0
 11
13.89999931336939
 21
20.35000042914051
 31
0.0
  0
LINE
  5
BE
330
5C
100
AcDbEntity
  8
0
  6
Continuous
 62
     7
100
AcDbLine
 10
13.89999931336938
 20
34.73024437378533
 30
0.0
 11
13.89999931336938
 21
45.90179546346881
 31
0.0
  0
LINE
  5
BF
330
5C
100
AcDbEntity
  8
0
  6
Continuous
 62
     7
100
AcDbLine
 10
16.09999931336939
 20
20.35000042914051
 30
0.0
 11
13.89999931336939
 21
20.35000042914051
 31
0.0
  0
LINE
  5
C0
330
5C
100
AcDbEntity
  8
0
  6
Continuous
 62
     7
100
AcDbLine
 10
16.09999931336938
 20
34.73024437378535
 30
0.0
 11
16.09999931336938
 21
45.9017954634688
 31
0.0
  0
LINE
  5
C1
330
5C
100
AcDbEntity
  8
0
  6
Continuous
 62
     7
100
AcDbLine
 10
16.09999931336938
 20
55.65000042914546
 30
0.0
 11
16.09999931336938
 21
45.9017954634688
 31
0.0
  0
LINE
  5
C2
330
5C
100
AcDbEntity
  8
0
  6
Continuous
 62
     7
100
AcDbLine
 10
16.09999931336938
 20
34.73024437378535
 30
0.0
 11
13.89999931336938
 21
34.73024437378533
 31
0.0
  0
LINE
  5
C3
330
5C
100
AcDbEntity
  8
0
  6
Continuous
 62
     7
100
AcDbLine
 10
16.09999931336938
 20
55.65000042914546
 30
0.0
 11
13.89999931336938
 21
55.65000042914546
 31
0.0
  0
LINE
  5
C4
330
5C
100
AcDbEntity
  8
0
  6
Continuous
 62
     7
100
AcDbLine
 10
13.89999931336938
 20
55.65000042914546
 30
0.0
 11
13.89999931336938
 21
45.90179546346881
 31
0.0
  0
LINE
  5
C5
330
5C
100
AcDbEntity
  8
0
  6
Continuous
 62
     7
100
AcDbLine
 10
16.09999931336938
 20
45.9017954634688
 30
0.0
 11
13.89999931336938
 21
45.90179546346881
 31
0.0
  0
LINE
  5
C6
330
5C
100
AcDbEntity
  8
0
  6
Continuous
 62
     7
100
AcDbLine
 10
16.09999931336938
 20
34.73024437378535
 30
0.0
 11
16.09999931336939
 21
20.35000042914051
 31
0.0
  0
ENDBLK
  5
5E
330
5C
100
AcDbEntity
  8
0
100
AcDbBlockEnd
  0
BLOCK
  5
61
330
5F
100
AcDbEntity
  8
0
100
AcDbBlockBegin
  2
SA_Links1
 70
     0
 10
15.00000000001
 20
37.99999999999987
 30
0.0
  3
SA_Links1
  1

  0
INSERT
  5
60
330
5F
100
AcDbEntity
  8
0
100
AcDbBlockReference
  2
d_sts4_twin_l_select__4
 10
13.89999931336938
 20
20.35000042914051
 30
0.0
  0
MTEXT
  5
C7
330
5F
100
AcDbEntity
  8
1
 62
     6
100
AcDbMText
 10
15.00000000001
 20
15.34999966621308
 30
0.0
 40
5.0
 41
0.0
 71
     2
 72
     1
  1
 
  7
CONVERTER_11
 73
     1
 44
1.32052821128451
  0
ENDBLK
  5
62
330
5F
100
AcDbEntity
  8
0
100
AcDbBlockEnd
  0
BLOCK
  5
64
330
63
100
AcDbEntity
  8
0
100
AcDbBlockBegin
  2
d_sts4_twin_l_select__5
 70
     0
 10
-105.6999977874864
 20
20.35000042915273
 30
0.0
  3
d_sts4_twin_l_select__5
  1

  0
LINE
  5
C8
330
63
100
AcDbEntity
  8
0
  6
Continuous
 62
     7
100
AcDbLine
 10
-105.6999977874864
 20
20.35000042915273
 30
0.0
 11
-103.4999977874864
 21
20.35000042915274
 31
0.0
  0
LINE
  5
C9
330
63
100
AcDbEntity
  8
0
  6
Continuous
 62
     7
100
AcDbLine
 10
-103.4999977874864
 20
20.35000042915274
 30
0.0
 11
-103.4999977874864
 21
34.73024437380112
 31
0.0
  0
LINE
  5
CA
330
63
100
AcDbEntity
  8
0
  6
Continuous
 62
     7
100
AcDbLine
 10
-105.6999977874864
 20
45.90179546348519
 30
0.0
 11
-105.6999977874864
 21
34.73024437380112
 31
0.0
  0
LINE
  5
CB
330
63
100
AcDbEntity
  8
0
  6
Continuous
 62
     7
100
AcDbLine
 10
-103.4999977874864
 20
45.90179546348519
 30
0.0
 11
-103.4999977874864
 21
34.73024437380112
 31
0.0
  0
LINE
  5
CC
330
63
100
AcDbEntity
  8
0
  6
Continuous
 62
     7
100
AcDbLine
 10
-105.6999977874864
 20
34.73024437380112
 30
0.0
 11
-103.4999977874864
 21
34.73024437380112
 31
0.0
  0
LINE
  5
CD
330
63
100
AcDbEntity
  8
0
  6
Continuous
 62
     7
100
AcDbLine
 10
-103.4999977874864
 20
45.90179546348519
 30
0.0
 11
-103.4999977874864
 21
55.65000042914694
 31
0.0
  0
LINE
  5
CE
330
63
100
AcDbEntity
  8
0
  6
Continuous
 62
     7
100
AcDbLine
 10
-105.6999977874864
 20
45.90179546348519
 30
0.0
 11
-103.4999977874864
 21
45.90179546348519
 31
0.0
  0
LINE
  5
CF
330
63
100
AcDbEntity
  8
0
  6
Continuous
 62
     7
100
AcDbLine
 10
-105.6999977874864
 20
45.90179546348519
 30
0.0
 11
-105.6999977874864
 21
55.65000042914693
 31
0.0
  0
LINE
  5
D0
330
63
100
AcDbEntity
  8
0
  6
Continuous
 62
     7
100
AcDbLine
 10
-105.6999977874864
 20
55.65000042914693
 30
0.0
 11
-103.4999977874864
 21
55.65000042914694
 31
0.0
  0
LINE
  5
D1
330
63
100
AcDbEntity
  8
0
  6
Continuous
 62
     7
100
AcDbLine
 10
-105.6999977874864
 20
20.35000042915273
 30
0.0
 11
-105.6999977874864
 21
34.73024437380112
 31
0.0
  0
ENDBLK
  5
65
330
63
100
AcDbEntity
  8
0
100
AcDbBlockEnd
  0
BLOCK
  5
68
330
66
100
AcDbEntity
  8
0
100
AcDbBlockBegin
  2
SA_Rechts1
 70
     0
 10
-104.599998474127
 20
38.0
 30
0.0
  3
SA_Rechts1
  1

  0
INSERT
  5
67
330
66
100
AcDbEntity
  8
0
100
AcDbBlockReference
  2
d_sts4_twin_l_select__5
 10
-105.6999977874864
 20
20.35000042915273
 30
0.0
  0
MTEXT
  5
D2
330
66
100
AcDbEntity
  8
1
 62
     6
100
AcDbMText
 10
-104.599998474127
 20
15.34999966621308
 30
0.0
 40
5.0
 41
0.0
 71
     2
 72
     1
  1
 
  7
CONVERTER_11
 73
     1
 44
1.32052821128451
  0
ENDBLK
  5
69
330
66
100
AcDbEntity
  8
0
100
AcDbBlockEnd
  0
BLOCK
  5
6B
330
6A
100
AcDbEntity
  8
0
100
AcDbBlockBegin
  2
d_sts4_twin_l_select__6
 70
     0
 10
-71.6000001684542
 20
20.35000042914063
 30
0.0
  3
d_sts4_twin_l_select__6
  1

  0
LINE
  5
D3
330
6A
100
AcDbEntity
  8
0
  6
Continuous
 62
     7
100
AcDbLine
 10
-7.00000016845419
 20
45.90179546348519
 30
0.0
 11
-7.00000016845138
 21
34.73024437380111
 31
0.0
  0
LINE
  5
D4
330
6A
100
AcDbEntity
  8
0
  6
Continuous
 62
     7
100
AcDbLine
 10
-15.27547547605997
 20
20.35000042915272
 30
0.0
 11
-7.00000016845138
 21
34.73024437380111
 31
0.0
  0
LINE
  5
D5
330
6A
100
AcDbEntity
  8
0
  6
Continuous
 62
     7
100
AcDbLine
 10
-15.27547547605997
 20
20.35000042915272
 30
0.0
 11
-63.32452486084519
 21
20.35000042914063
 31
0.0
  0
LINE
  5
D6
330
6A
100
AcDbEntity
  8
0
  6
Continuous
 62
     7
100
AcDbLine
 10
-71.60000016845139
 20
34.73024437378547
 30
0.0
 11
-63.32452486084519
 21
20.35000042914063
 31
0.0
  0
LINE
  5
D7
330
6A
100
AcDbEntity
  8
0
  6
Continuous
 62
     7
100
AcDbLine
 10
-71.60000016845139
 20
34.73024437378547
 30
0.0
 11
-71.6000001684542
 21
45.90179546346893
 31
0.0
  0
LINE
  5
D8
330
6A
100
AcDbEntity
  8
0
  6
Continuous
 62
     7
100
AcDbLine
 10
-7.00000016845419
 20
45.90179546348519
 30
0.0
 11
-33.78297319184536
 21
55.65000042914693
 31
0.0
  0
LINE
  5
D9
330
6A
100
AcDbEntity
  8
0
  6
Continuous
 62
     7
100
AcDbLine
 10
-33.78297319184536
 20
55.65000042914693
 30
0.0
 11
-44.81702714506402
 21
55.65000042914559
 31
0.0
  0
LINE
  5
DA
330
6A
100
AcDbEntity
  8
0
  6
Continuous
 62
     7
100
AcDbLine
 10
-44.81702714506402
 20
55.65000042914559
 30
0.0
 11
-71.6000001684542
 21
45.90179546346893
 31
0.0
  0
ENDBLK
  5
6C
330
6A
100
AcDbEntity
  8
0
100
AcDbBlockEnd
  0
BLOCK
  5
6F
330
6D
100
AcDbEntity
  8
0
100
AcDbBlockBegin
  2
Vordans1
 70
     0
 10
-39.29999923706117
 20
38.0
 30
0.0
  3
Vordans1
  1

  0
INSERT
  5
6E
330
6D
100
AcDbEntity
  8
0
100
AcDbBlockReference
  2
d_sts4_twin_l_select__6
 10
-71.6000001684542
 20
20.35000042914063
 30
0.0
  0
MTEXT
  5
DB
330
6D
100
AcDbEntity
  8
1
 62
     6
100
AcDbMText
 10
-39.299999237061
 20
15.34999966621319
 30
0.0
 40
5.0
 41
0.0
 71
     2
 72
     1
  1
 
  7
CONVERTER_11
 73
     1
 44
1.32052821128451
  0
DIMENSION
  5
E7
330
6D
100
AcDbEntity
  8
1
100
AcDbDimension
  2
*D18
 10
-86.96547117225614
 20
55.65000042914559
 30
0.0
 11
-90.39047117225614
 21
37.8004866755463
 31
0.0
 70
    32
  1
<>
 71
     5
 42
-1.0
 53
90.0
  3
ME10_DIM_11
100
AcDbAlignedDimension
 13
-63.32452486084519
 23
20.35000042914063
 33
0.0
 14
-44.81702714506402
 24
55.65000042914559
 34
0.0
 50
90.0
100
AcDbRotatedDimension
  0
DIMENSION
  5
F2
330
6D
100
AcDbEntity
  8
1
100
AcDbDimension
  2
*D19
 10
-71.60000016845139
 20
7.40253281492601
 30
0.0
 11
-38.26307692307651
 21
11.32753281492601
 31
0.0
 70
    32
  1
<>
 71
     5
 42
-1.0
 53
0.00013888888889
  3
ME10_DIM_12
100
AcDbAlignedDimension
 13
-7.00000016845138
 23
34.73024437380111
 33
0.0
 14
-71.60000016845139
 24
34.73024437378547
 34
0.0
100
AcDbRotatedDimension
  0
ENDBLK
  5
70
330
6D
100
AcDbEntity
  8
0
100
AcDbBlockEnd
  0
BLOCK
  5
72
330
71
100
AcDbEntity
  8
0
100
AcDbBlockBegin
  2
_rahmen
 70
     0
 10
141.0000008471634
 20
-104.0933310916225
 30
0.0
  3
_rahmen
  1

  0
LINE
  5
F3
330
71
100
AcDbEntity
  8
1
  6
DOT_CENTER
 62
     2
100
AcDbLine
 10
15.44185120697597
 20
-77.96833109162247
 30
0.0
 11
20.94185120697597
 21
-77.96833109162247
 31
0.0
  0
LINE
  5
F4
330
71
100
AcDbEntity
  8
1
  6
PHANTOM
 62
     2
100
AcDbLine
 10
24.19185120697597
 20
-75.21833109162247
 30
0.0
 11
24.19185120697597
 21
-80.71833109162247
 31
0.0
  0
LINE
  5
F5
330
71
100
AcDbEntity
  8
1
  6
PHANTOM
 62
     2
100
AcDbLine
 10
26.94185120697597
 20
-77.96833109162247
 30
0.0
 11
21.44185120697597
 21
-77.96833109162247
 31
0.0
  0
LINE
  5
F6
330
71
100
AcDbEntity
  8
1
  6
Continuous
 62
     7
100
AcDbLine
 10
75.75519632041338
 20
-90.59333109162247
 30
0.0
 11
75.75519632041338
 21
-82.09333109162239
 31
0.0
  0
LINE
  5
F7
330
71
100
AcDbEntity
  8
1
  6
Continuous
 62
     6
100
AcDbLine
 10
47.85519632041329
 20
-82.09333109162239
 30
0.0
 11
141.0000008471651
 21
-82.09333109162239
 31
0.0
  0
LINE
  5
F8
330
71
100
AcDbEntity
  8
1
  6
Continuous
 62
     7
100
AcDbLine
 10
11.45519632041336
 20
-82.09333109162239
 30
0.0
 11
11.45519632041336
 21
-73.59333109162239
 31
0.0
  0
LINE
  5
F9
330
71
100
AcDbEntity
  8
1
  6
Continuous
 62
     7
100
AcDbLine
 10
47.85519632041329
 20
-82.09333109162239
 30
0.0
 11
47.85519632041329
 21
-73.59333109162239
 31
0.0
  0
LINE
  5
FA
330
71
100
AcDbEntity
  8
1
  6
Continuous
 62
     7
100
AcDbLine
 10
105.5815925654863
 20
-73.59333109162239
 30
0.0
 11
105.5815925654863
 21
-82.09333109162239
 31
0.0
  0
LINE
  5
FB
330
71
100
AcDbEntity
  8
1
  6
Continuous
 62
     7
100
AcDbLine
 10
132.0815925654859
 20
-73.59333109162239
 30
0.0
 11
132.0815925654859
 21
-82.09333109162239
 31
0.0
  0
LINE
  5
FC
330
71
100
AcDbEntity
  8
1
  6
Continuous
 62
     6
100
AcDbLine
 10
-57.54480367958661
 20
-99.09333109162239
 30
0.0
 11
-102.4999991528366
 21
-99.09333109162239
 31
0.0
  0
LINE
  5
FD
330
71
100
AcDbEntity
  8
1
  6
Continuous
 62
     7
100
AcDbLine
 10
141.0000008471647
 20
-90.59333109162239
 30
0.0
 11
47.85519632041329
 21
-90.59333109162239
 31
0.0
  0
LINE
  5
FE
102
{ACAD_REACTORS
330
210
330
211
102
}
330
71
100
AcDbEntity
  8
0
  6
Continuous
 62
     2
100
AcDbLine
 10
25.16262526218077
 20
-89.79304197595908
 30
0.0
 11
25.16262526218077
 21
-88.92052496915579
 31
0.0
  0
LINE
  5
FF
102
{ACAD_REACTORS
330
210
330
211
102
}
330
71
100
AcDbEntity
  8
0
  6
Continuous
 62
     2
100
AcDbLine
 10
25.16262526218077
 20
-90.752810683442
 30
0.0
 11
25.16262526218077
 21
-91.6253276902452
 31
0.0
  0
LINE
  5
100
102
{ACAD_REACTORS
330
212
330
213
102
}
330
71
100
AcDbEntity
  8
0
  6
Continuous
 62
     2
100
AcDbLine
 10
40.49566939847128
 20
-89.53128687391859
 30
0.0
 11
41.59930869803938
 21
-89.53128687391859
 31
0.0
  0
LINE
  5
101
102
{ACAD_REACTORS
330
212
330
213
102
}
330
71
100
AcDbEntity
  8
0
  6
Continuous
 62
     2
100
AcDbLine
 10
41.26532674143269
 20
-90.75281068344248
 30
0.0
 11
41.26532674143269
 21
-91.6253276902458
 31
0.0
  0
LINE
  5
102
102
{ACAD_REACTORS
330
21C
330
21D
102
}
330
71
100
AcDbEntity
  8
0
  6
Continuous
 62
     2
100
AcDbLine
 10
39.40457012605276
 20
-88.44064061543179
 30
0.0
 11
40.80252317299306
 21
-86.8597816216568
 31
0.0
  0
LINE
  5
103
102
{ACAD_REACTORS
330
21C
330
21D
102
}
330
71
100
AcDbEntity
  8
0
  6
Continuous
 62
     2
100
AcDbLine
 10
39.49999354222558
 20
-85.38683109162059
 30
0.0
 11
40.80252317299306
 21
-86.8597816216568
 31
0.0
  0
LINE
  5
104
102
{ACAD_REACTORS
330
21C
330
21D
102
}
330
71
100
AcDbEntity
  8
0
  6
Continuous
 62
     2
100
AcDbLine
 10
42.10505280375946
 20
-85.38683109162059
 30
0.0
 11
43.50777702150668
 21
-85.38683109162059
 31
0.0
  0
LINE
  5
105
102
{ACAD_REACTORS
330
21C
330
21D
102
}
330
71
100
AcDbEntity
  8
0
  6
Continuous
 62
     2
100
AcDbLine
 10
40.80729434380098
 20
-88.44064061543179
 30
0.0
 11
41.50388528186667
 21
-87.65290883013807
 31
0.0
  0
LINE
  5
106
102
{ACAD_REACTORS
330
21C
330
21D
102
}
330
71
100
AcDbEntity
  8
0
  6
Continuous
 62
     2
100
AcDbLine
 10
40.80729434380098
 20
-88.44064061543179
 30
0.0
 11
39.40457012605276
 21
-88.44064061543179
 31
0.0
  0
LINE
  5
107
102
{ACAD_REACTORS
330
21E
330
21F
102
}
330
71
100
AcDbEntity
  8
0
  6
Continuous
 62
     2
100
AcDbLine
 10
39.28529085583588
 20
-88.44064061543179
 30
0.0
 11
38.04478644558299
 21
-88.44064061543179
 31
0.0
  0
LINE
  5
108
102
{ACAD_REACTORS
330
220
330
221
102
}
330
71
100
AcDbEntity
  8
0
  6
Continuous
 62
     2
100
AcDbLine
 10
37.17680683742788
 20
-90.5783072820816
 30
0.0
 11
36.87664160023778
 21
-89.8104923160949
 31
0.0
  0
LINE
  5
109
102
{ACAD_REACTORS
330
220
330
221
102
}
330
71
100
AcDbEntity
  8
0
  6
Continuous
 62
     2
100
AcDbLine
 10
36.57647636304537
 20
-90.5783072820816
 30
0.0
 11
37.17680683742788
 21
-90.5783072820816
 31
0.0
  0
LINE
  5
10A
102
{ACAD_REACTORS
330
220
330
221
102
}
330
71
100
AcDbEntity
  8
0
  6
Continuous
 62
     2
100
AcDbLine
 10
34.85843634817158
 20
-91.79983109160608
 30
0.0
 11
36.09894075842456
 21
-91.79983109160608
 31
0.0
  0
LINE
  5
10B
102
{ACAD_REACTORS
330
220
330
221
102
}
330
71
100
AcDbEntity
  8
0
  6
Continuous
 62
     2
100
AcDbLine
 10
36.25638939511089
 20
-88.746021567795
 30
0.0
 11
37.49689380536358
 21
-88.746021567795
 31
0.0
  0
LINE
  5
10C
102
{ACAD_REACTORS
330
220
330
221
102
}
330
71
100
AcDbEntity
  8
0
  6
Continuous
 62
     2
100
AcDbLine
 10
37.49689380536358
 20
-88.746021567795
 30
0.0
 11
38.89484685230389
 21
-91.79983109160608
 31
0.0
  0
LINE
  5
10D
102
{ACAD_REACTORS
330
220
330
221
102
}
330
71
100
AcDbEntity
  8
0
  6
Continuous
 62
     2
100
AcDbLine
 10
37.65434244204997
 20
-91.79983109160608
 30
0.0
 11
37.44286238857418
 21
-91.2588705473882
 31
0.0
  0
LINE
  5
10E
102
{ACAD_REACTORS
330
222
330
223
102
}
330
71
100
AcDbEntity
  8
0
  6
Continuous
 62
     2
100
AcDbLine
 10
33.51202324646397
 20
-91.79983109160608
 30
0.0
 11
34.70481594863048
 21
-91.79983109160608
 31
0.0
  0
LINE
  5
10F
102
{ACAD_REACTORS
330
222
330
223
102
}
330
71
100
AcDbEntity
  8
0
  6
Continuous
 62
     2
100
AcDbLine
 10
33.51202324646397
 20
-89.53128687391859
 30
0.0
 11
33.51202324646397
 21
-91.79983109160608
 31
0.0
  0
LINE
  5
110
102
{ACAD_REACTORS
330
222
330
223
102
}
330
71
100
AcDbEntity
  8
0
  6
Continuous
 62
     2
100
AcDbLine
 10
32.70092420898936
 20
-88.746021567795
 30
0.0
 11
32.70092420898936
 21
-89.53128687391859
 31
0.0
  0
LINE
  5
111
102
{ACAD_REACTORS
330
224
330
225
102
}
330
71
100
AcDbEntity
  8
0
  6
Continuous
 62
     2
100
AcDbLine
 10
34.18013809056197
 20
-88.44064061543179
 30
0.0
 11
35.37293079272848
 21
-88.44064061543179
 31
0.0
  0
LINE
  5
112
102
{ACAD_REACTORS
330
224
330
225
102
}
330
71
100
AcDbEntity
  8
0
  6
Continuous
 62
     2
100
AcDbLine
 10
36.61343520298249
 20
-86.69560660182577
 30
0.0
 11
35.37293079272848
 21
-85.38683109162059
 31
0.0
  0
LINE
  5
113
102
{ACAD_REACTORS
330
224
330
225
102
}
330
71
100
AcDbEntity
  8
0
  6
Continuous
 62
     2
100
AcDbLine
 10
37.80622790514909
 20
-85.38683109162059
 30
0.0
 11
36.61343520298249
 21
-85.38683109162059
 31
0.0
  0
LINE
  5
114
102
{ACAD_REACTORS
330
224
330
225
102
}
330
71
100
AcDbEntity
  8
0
  6
Continuous
 62
     2
100
AcDbLine
 10
37.80622790514909
 20
-88.44064061543179
 30
0.0
 11
37.80622790514909
 21
-85.38683109162059
 31
0.0
  0
LINE
  5
115
102
{ACAD_REACTORS
330
224
330
225
102
}
330
71
100
AcDbEntity
  8
0
  6
Continuous
 62
     2
100
AcDbLine
 10
36.61343520298249
 20
-88.44064061543179
 30
0.0
 11
37.80622790514909
 21
-88.44064061543179
 31
0.0
  0
LINE
  5
116
102
{ACAD_REACTORS
330
224
330
225
102
}
330
71
100
AcDbEntity
  8
0
  6
Continuous
 62
     2
100
AcDbLine
 10
35.37293079272848
 20
-87.13186510522709
 30
0.0
 11
36.61343520298249
 21
-88.44064061543179
 31
0.0
  0
LINE
  5
117
102
{ACAD_REACTORS
330
226
330
227
102
}
330
71
100
AcDbEntity
  8
0
  6
Continuous
 62
     2
100
AcDbLine
 10
31.36499638256277
 20
-90.05479707800009
 30
0.0
 11
30.12449197230987
 21
-88.746021567795
 31
0.0
  0
LINE
  5
118
102
{ACAD_REACTORS
330
226
330
227
102
}
330
71
100
AcDbEntity
  8
0
  6
Continuous
 62
     2
100
AcDbLine
 10
31.36499638256277
 20
-88.746021567795
 30
0.0
 11
31.36499638256277
 21
-90.05479707800009
 31
0.0
  0
LINE
  5
119
102
{ACAD_REACTORS
330
226
330
227
102
}
330
71
100
AcDbEntity
  8
0
  6
Continuous
 62
     2
100
AcDbLine
 10
32.55778908472917
 20
-88.746021567795
 30
0.0
 11
31.36499638256277
 21
-88.746021567795
 31
0.0
  0
LINE
  5
11A
102
{ACAD_REACTORS
330
226
330
227
102
}
330
71
100
AcDbEntity
  8
0
  6
Continuous
 62
     2
100
AcDbLine
 10
32.55778908472917
 20
-91.79983109160608
 30
0.0
 11
32.55778908472917
 21
-88.746021567795
 31
0.0
  0
LINE
  5
11B
102
{ACAD_REACTORS
330
226
330
227
102
}
330
71
100
AcDbEntity
  8
0
  6
Continuous
 62
     2
100
AcDbLine
 10
30.12449197230987
 20
-90.4910555814015
 30
0.0
 11
31.36499638256277
 21
-91.79983109160608
 31
0.0
  0
LINE
  5
11C
102
{ACAD_REACTORS
330
226
330
227
102
}
330
71
100
AcDbEntity
  8
0
  6
Continuous
 62
     2
100
AcDbLine
 10
30.12449197230987
 20
-91.79983109160608
 30
0.0
 11
30.12449197230987
 21
-90.4910555814015
 31
0.0
  0
LINE
  5
11D
102
{ACAD_REACTORS
330
216
330
217
102
}
330
71
100
AcDbEntity
  8
0
  6
Continuous
 62
     2
100
AcDbLine
 10
32.60565172370139
 20
-86.08484469706357
 30
0.0
 11
33.94157955012906
 21
-86.08484469706357
 31
0.0
  0
LINE
  5
11E
102
{ACAD_REACTORS
330
216
330
217
102
}
330
71
100
AcDbEntity
  8
0
  6
Continuous
 62
     2
100
AcDbLine
 10
32.60565172370139
 20
-87.74262700998929
 30
0.0
 11
32.60565172370139
 21
-87.26274265624758
 31
0.0
  0
LINE
  5
11F
102
{ACAD_REACTORS
330
216
330
217
102
}
330
71
100
AcDbEntity
  8
0
  6
Continuous
 62
     2
100
AcDbLine
 10
33.94157955012906
 20
-87.74262700998929
 30
0.0
 11
32.60565172370139
 21
-87.74262700998929
 31
0.0
  0
LINE
  5
120
102
{ACAD_REACTORS
330
216
330
217
102
}
330
71
100
AcDbEntity
  8
0
  6
Continuous
 62
     2
100
AcDbLine
 10
33.94157955012906
 20
-88.44064061543179
 30
0.0
 11
33.94157955012906
 21
-87.74262700998929
 31
0.0
  0
LINE
  5
121
102
{ACAD_REACTORS
330
216
330
217
102
}
330
71
100
AcDbEntity
  8
0
  6
Continuous
 62
     2
100
AcDbLine
 10
30.79125982634807
 20
-88.44064061543179
 30
0.0
 11
33.94157955012906
 21
-88.44064061543179
 31
0.0
  0
LINE
  5
122
102
{ACAD_REACTORS
330
216
330
217
102
}
330
71
100
AcDbEntity
  8
0
  6
Continuous
 62
     2
100
AcDbLine
 10
30.79125982634807
 20
-85.38683109162059
 30
0.0
 11
33.94157955012906
 21
-85.38683109162059
 31
0.0
  0
LINE
  5
123
102
{ACAD_REACTORS
330
216
330
217
102
}
330
71
100
AcDbEntity
  8
0
  6
Continuous
 62
     2
100
AcDbLine
 10
33.94157955012906
 20
-86.08484469706357
 30
0.0
 11
33.94157955012906
 21
-85.38683109162059
 31
0.0
  0
LINE
  5
124
102
{ACAD_REACTORS
330
228
330
229
102
}
330
71
100
AcDbEntity
  8
0
  6
Continuous
 62
     2
100
AcDbLine
 10
27.92990433120806
 20
-86.45566442495519
 30
0.0
 11
27.92990433120806
 21
-85.38683109162059
 31
0.0
  0
LINE
  5
125
102
{ACAD_REACTORS
330
228
330
229
102
}
330
71
100
AcDbEntity
  8
0
  6
Continuous
 62
     2
100
AcDbLine
 10
27.92990433120806
 20
-85.38683109162059
 30
0.0
 11
29.12269703337447
 21
-85.38683109162059
 31
0.0
  0
LINE
  5
126
102
{ACAD_REACTORS
330
228
330
229
102
}
330
71
100
AcDbEntity
  8
0
  6
Continuous
 62
     2
100
AcDbLine
 10
27.92990433120806
 20
-87.30636850658797
 30
0.0
 11
26.88024675330058
 21
-87.30636850658797
 31
0.0
  0
LINE
  5
127
102
{ACAD_REACTORS
330
228
330
229
102
}
330
71
100
AcDbEntity
  8
0
  6
Continuous
 62
     2
100
AcDbLine
 10
26.88024675330058
 20
-87.30636850658797
 30
0.0
 11
26.88024675330058
 21
-88.44064061543179
 31
0.0
  0
LINE
  5
128
102
{ACAD_REACTORS
330
228
330
229
102
}
330
71
100
AcDbEntity
  8
0
  6
Continuous
 62
     2
100
AcDbLine
 10
25.68745405113398
 20
-85.38683109162059
 30
0.0
 11
25.68745405113398
 21
-88.44064061543179
 31
0.0
  0
LINE
  5
129
102
{ACAD_REACTORS
330
21A
330
21B
102
}
330
71
100
AcDbEntity
  8
0
  6
Continuous
 62
     2
100
AcDbLine
 10
23.73127401958038
 20
-86.7556645864029
 30
0.0
 11
23.73127401958038
 21
-86.04993693706069
 31
0.0
  0
LINE
  5
12A
102
{ACAD_REACTORS
330
21A
330
21B
102
}
330
71
100
AcDbEntity
  8
0
  6
Continuous
 62
     2
100
AcDbLine
 10
22.49076960932626
 20
-88.44064061543179
 30
0.0
 11
23.73127401958038
 21
-88.44064061543179
 31
0.0
  0
LINE
  5
12B
102
{ACAD_REACTORS
330
21A
330
21B
102
}
330
71
100
AcDbEntity
  8
0
  6
Continuous
 62
     2
100
AcDbLine
 10
23.73127401958038
 20
-88.44064061543179
 30
0.0
 11
23.73127401958038
 21
-87.49756237428798
 31
0.0
  0
LINE
  5
12C
102
{ACAD_REACTORS
330
214
330
215
102
}
330
71
100
AcDbEntity
  8
0
  6
Continuous
 62
     2
100
AcDbLine
 10
18.18582376011489
 20
-91.08727553604919
 30
0.0
 11
16.70999049910526
 21
-91.08727553604919
 31
0.0
  0
LINE
  5
12D
102
{ACAD_REACTORS
330
214
330
215
102
}
330
71
100
AcDbEntity
  8
0
  6
Continuous
 62
     2
100
AcDbLine
 10
15.69185120697597
 20
-85.81107570702258
 30
0.0
 11
15.69185120697597
 21
-91.3755864762228
 31
0.0
  0
LINE
  5
12E
102
{ACAD_REACTORS
330
214
330
215
102
}
330
71
100
AcDbEntity
  8
0
  6
Continuous
 62
     2
100
AcDbLine
 10
16.11609582235877
 20
-85.38683109163878
 30
0.0
 11
21.58940791307558
 21
-85.38683109163878
 31
0.0
  0
LINE
  5
12F
102
{ACAD_REACTORS
330
214
330
215
102
}
330
71
100
AcDbEntity
  8
0
  6
Continuous
 62
     2
100
AcDbLine
 10
22.01365252845946
 20
-85.81107570702258
 30
0.0
 11
22.01365252845946
 21
-91.3755864762228
 31
0.0
  0
LINE
  5
130
102
{ACAD_REACTORS
330
214
330
215
102
}
330
71
100
AcDbEntity
  8
0
  6
Continuous
 62
     2
100
AcDbLine
 10
21.58940791307558
 20
-91.79983109160608
 30
0.0
 11
16.11609582235877
 21
-91.79983109160608
 31
0.0
  0
LINE
  5
131
102
{ACAD_REACTORS
330
214
330
215
102
}
330
71
100
AcDbEntity
  8
0
  6
Continuous
 62
     2
100
AcDbLine
 10
18.50154068319148
 20
-90.77155861297248
 30
0.0
 11
18.50154068319148
 21
-89.24078768144088
 31
0.0
  0
LINE
  5
132
102
{ACAD_REACTORS
330
214
330
215
102
}
330
71
100
AcDbEntity
  8
0
  6
Continuous
 62
     2
100
AcDbLine
 10
18.50154068319148
 20
-87.0191281893159
 30
0.0
 11
18.50154068319148
 21
-86.41510357025538
 31
0.0
  0
LINE
  5
133
102
{ACAD_REACTORS
330
214
330
215
102
}
330
71
100
AcDbEntity
  8
0
  6
Continuous
 62
     2
100
AcDbLine
 10
16.70999049910526
 20
-86.09938664717919
 30
0.0
 11
18.18582376011489
 21
-86.09938664717919
 31
0.0
  0
LINE
  5
134
102
{ACAD_REACTORS
330
214
330
215
102
}
330
71
100
AcDbEntity
  8
0
  6
Continuous
 62
     2
100
AcDbLine
 10
16.39427357602958
 20
-86.41510357025538
 30
0.0
 11
16.39427357602958
 21
-90.77155861297248
 31
0.0
  0
LINE
  5
135
102
{ACAD_REACTORS
330
21A
330
21B
102
}
330
71
100
AcDbEntity
  8
0
  6
Continuous
 62
     2
100
AcDbLine
 10
23.73127401958038
 20
-87.49756237428798
 30
0.0
 11
24.49004160736067
 21
-87.49756237428798
 31
0.0
  0
LINE
  5
136
102
{ACAD_REACTORS
330
21A
330
21B
102
}
330
71
100
AcDbEntity
  8
0
  6
Continuous
 62
     2
100
AcDbLine
 10
22.49076960932626
 20
-85.38683109162059
 30
0.0
 11
24.49004160736067
 21
-85.38683109162059
 31
0.0
  0
LINE
  5
137
102
{ACAD_REACTORS
330
21A
330
21B
102
}
330
71
100
AcDbEntity
  8
0
  6
Continuous
 62
     2
100
AcDbLine
 10
22.49076960932626
 20
-85.38683109162059
 30
0.0
 11
22.49076960932626
 21
-88.44064061543179
 31
0.0
  0
LINE
  5
138
102
{ACAD_REACTORS
330
21A
330
21B
102
}
330
71
100
AcDbEntity
  8
0
  6
Continuous
 62
     2
100
AcDbLine
 10
23.73127401958038
 20
-86.7556645864029
 30
0.0
 11
24.04856908112228
 21
-86.7556645864029
 31
0.0
  0
LINE
  5
139
102
{ACAD_REACTORS
330
21A
330
21B
102
}
330
71
100
AcDbEntity
  8
0
  6
Continuous
 62
     2
100
AcDbLine
 10
23.73127401958038
 20
-86.04993693706069
 30
0.0
 11
24.04856908112228
 21
-86.04993693706069
 31
0.0
  0
LINE
  5
13A
102
{ACAD_REACTORS
330
228
330
229
102
}
330
71
100
AcDbEntity
  8
0
  6
Continuous
 62
     2
100
AcDbLine
 10
26.88024675330058
 20
-86.45566442495519
 30
0.0
 11
27.92990433120806
 21
-86.45566442495519
 31
0.0
  0
LINE
  5
13B
102
{ACAD_REACTORS
330
228
330
229
102
}
330
71
100
AcDbEntity
  8
0
  6
Continuous
 62
     2
100
AcDbLine
 10
26.88024675330058
 20
-85.38683109162059
 30
0.0
 11
26.88024675330058
 21
-86.45566442495519
 31
0.0
  0
LINE
  5
13C
102
{ACAD_REACTORS
330
228
330
229
102
}
330
71
100
AcDbEntity
  8
0
  6
Continuous
 62
     2
100
AcDbLine
 10
25.68745405113398
 20
-85.38683109162059
 30
0.0
 11
26.88024675330058
 21
-85.38683109162059
 31
0.0
  0
LINE
  5
13D
102
{ACAD_REACTORS
330
228
330
229
102
}
330
71
100
AcDbEntity
  8
0
  6
Continuous
 62
     2
100
AcDbLine
 10
26.88024675330058
 20
-88.44064061543179
 30
0.0
 11
25.68745405113398
 21
-88.44064061543179
 31
0.0
  0
LINE
  5
13E
102
{ACAD_REACTORS
330
228
330
229
102
}
330
71
100
AcDbEntity
  8
0
  6
Continuous
 62
     2
100
AcDbLine
 10
27.92990433120806
 20
-88.44064061543179
 30
0.0
 11
27.92990433120806
 21
-87.30636850658797
 31
0.0
  0
LINE
  5
13F
102
{ACAD_REACTORS
330
228
330
229
102
}
330
71
100
AcDbEntity
  8
0
  6
Continuous
 62
     2
100
AcDbLine
 10
29.12269703337447
 20
-88.44064061543179
 30
0.0
 11
27.92990433120806
 21
-88.44064061543179
 31
0.0
  0
LINE
  5
140
102
{ACAD_REACTORS
330
228
330
229
102
}
330
71
100
AcDbEntity
  8
0
  6
Continuous
 62
     2
100
AcDbLine
 10
29.12269703337447
 20
-85.38683109162059
 30
0.0
 11
29.12269703337447
 21
-88.44064061543179
 31
0.0
  0
LINE
  5
141
102
{ACAD_REACTORS
330
216
330
217
102
}
330
71
100
AcDbEntity
  8
0
  6
Continuous
 62
     2
100
AcDbLine
 10
32.60565172370139
 20
-87.26274265624758
 30
0.0
 11
33.94157955012906
 21
-87.26274265624758
 31
0.0
  0
LINE
  5
142
102
{ACAD_REACTORS
330
216
330
217
102
}
330
71
100
AcDbEntity
  8
0
  6
Continuous
 62
     2
100
AcDbLine
 10
33.94157955012906
 20
-87.26274265624758
 30
0.0
 11
33.94157955012906
 21
-86.56472905080528
 31
0.0
  0
LINE
  5
143
102
{ACAD_REACTORS
330
216
330
217
102
}
330
71
100
AcDbEntity
  8
0
  6
Continuous
 62
     2
100
AcDbLine
 10
33.94157955012906
 20
-86.56472905080528
 30
0.0
 11
32.60565172370139
 21
-86.56472905080528
 31
0.0
  0
LINE
  5
144
102
{ACAD_REACTORS
330
216
330
217
102
}
330
71
100
AcDbEntity
  8
0
  6
Continuous
 62
     2
100
AcDbLine
 10
32.60565172370139
 20
-86.56472905080528
 30
0.0
 11
32.60565172370139
 21
-86.08484469706357
 31
0.0
  0
LINE
  5
145
102
{ACAD_REACTORS
330
226
330
227
102
}
330
71
100
AcDbEntity
  8
0
  6
Continuous
 62
     2
100
AcDbLine
 10
28.93169927014228
 20
-91.79983109160608
 30
0.0
 11
30.12449197230987
 21
-91.79983109160608
 31
0.0
  0
LINE
  5
146
102
{ACAD_REACTORS
330
226
330
227
102
}
330
71
100
AcDbEntity
  8
0
  6
Continuous
 62
     2
100
AcDbLine
 10
31.36499638256277
 20
-91.79983109160608
 30
0.0
 11
32.55778908472917
 21
-91.79983109160608
 31
0.0
  0
LINE
  5
147
102
{ACAD_REACTORS
330
226
330
227
102
}
330
71
100
AcDbEntity
  8
0
  6
Continuous
 62
     2
100
AcDbLine
 10
30.12449197230987
 20
-88.746021567795
 30
0.0
 11
28.93169927014228
 21
-88.746021567795
 31
0.0
  0
LINE
  5
148
102
{ACAD_REACTORS
330
226
330
227
102
}
330
71
100
AcDbEntity
  8
0
  6
Continuous
 62
     2
100
AcDbLine
 10
28.93169927014228
 20
-88.746021567795
 30
0.0
 11
28.93169927014228
 21
-91.79983109160608
 31
0.0
  0
LINE
  5
149
102
{ACAD_REACTORS
330
224
330
225
102
}
330
71
100
AcDbEntity
  8
0
  6
Continuous
 62
     2
100
AcDbLine
 10
36.61343520298249
 20
-85.38683109162059
 30
0.0
 11
36.61343520298249
 21
-86.69560660182577
 31
0.0
  0
LINE
  5
14A
102
{ACAD_REACTORS
330
224
330
225
102
}
330
71
100
AcDbEntity
  8
0
  6
Continuous
 62
     2
100
AcDbLine
 10
35.37293079272848
 20
-85.38683109162059
 30
0.0
 11
34.18013809056197
 21
-85.38683109162059
 31
0.0
  0
LINE
  5
14B
102
{ACAD_REACTORS
330
224
330
225
102
}
330
71
100
AcDbEntity
  8
0
  6
Continuous
 62
     2
100
AcDbLine
 10
34.18013809056197
 20
-85.38683109162059
 30
0.0
 11
34.18013809056197
 21
-88.44064061543179
 31
0.0
  0
LINE
  5
14C
102
{ACAD_REACTORS
330
224
330
225
102
}
330
71
100
AcDbEntity
  8
0
  6
Continuous
 62
     2
100
AcDbLine
 10
35.37293079272848
 20
-88.44064061543179
 30
0.0
 11
35.37293079272848
 21
-87.13186510522709
 31
0.0
  0
LINE
  5
14D
102
{ACAD_REACTORS
330
222
330
223
102
}
330
71
100
AcDbEntity
  8
0
  6
Continuous
 62
     2
100
AcDbLine
 10
34.70481594863048
 20
-91.79983109160608
 30
0.0
 11
34.70481594863048
 21
-89.53128687391859
 31
0.0
  0
LINE
  5
14E
102
{ACAD_REACTORS
330
222
330
223
102
}
330
71
100
AcDbEntity
  8
0
  6
Continuous
 62
     2
100
AcDbLine
 10
34.70481594863048
 20
-89.53128687391859
 30
0.0
 11
35.51591498610299
 21
-89.53128687391859
 31
0.0
  0
LINE
  5
14F
102
{ACAD_REACTORS
330
222
330
223
102
}
330
71
100
AcDbEntity
  8
0
  6
Continuous
 62
     2
100
AcDbLine
 10
35.51591498610299
 20
-89.53128687391859
 30
0.0
 11
35.51591498610299
 21
-88.746021567795
 31
0.0
  0
LINE
  5
150
102
{ACAD_REACTORS
330
222
330
223
102
}
330
71
100
AcDbEntity
  8
0
  6
Continuous
 62
     2
100
AcDbLine
 10
35.51591498610299
 20
-88.746021567795
 30
0.0
 11
32.70092420898936
 21
-88.746021567795
 31
0.0
  0
LINE
  5
151
102
{ACAD_REACTORS
330
222
330
223
102
}
330
71
100
AcDbEntity
  8
0
  6
Continuous
 62
     2
100
AcDbLine
 10
32.70092420898936
 20
-89.53128687391859
 30
0.0
 11
33.51202324646397
 21
-89.53128687391859
 31
0.0
  0
LINE
  5
152
102
{ACAD_REACTORS
330
220
330
221
102
}
330
71
100
AcDbEntity
  8
0
  6
Continuous
 62
     2
100
AcDbLine
 10
36.31042081190037
 20
-91.2588705473882
 30
0.0
 11
37.44286238857418
 21
-91.2588705473882
 31
0.0
  0
LINE
  5
153
102
{ACAD_REACTORS
330
220
330
221
102
}
330
71
100
AcDbEntity
  8
0
  6
Continuous
 62
     2
100
AcDbLine
 10
38.89484685230389
 20
-91.79983109160608
 30
0.0
 11
37.65434244204997
 21
-91.79983109160608
 31
0.0
  0
LINE
  5
154
102
{ACAD_REACTORS
330
220
330
221
102
}
330
71
100
AcDbEntity
  8
0
  6
Continuous
 62
     2
100
AcDbLine
 10
36.25638939511089
 20
-88.746021567795
 30
0.0
 11
34.85843634817158
 21
-91.79983109160608
 31
0.0
  0
LINE
  5
155
102
{ACAD_REACTORS
330
220
330
221
102
}
330
71
100
AcDbEntity
  8
0
  6
Continuous
 62
     2
100
AcDbLine
 10
36.09894075842456
 20
-91.79983109160608
 30
0.0
 11
36.31042081190037
 21
-91.2588705473882
 31
0.0
  0
LINE
  5
156
102
{ACAD_REACTORS
330
220
330
221
102
}
330
71
100
AcDbEntity
  8
0
  6
Continuous
 62
     2
100
AcDbLine
 10
36.57647636304537
 20
-90.5783072820816
 30
0.0
 11
36.87664160023778
 21
-89.8104923160949
 31
0.0
  0
LINE
  5
157
102
{ACAD_REACTORS
330
21E
330
21F
102
}
330
71
100
AcDbEntity
  8
0
  6
Continuous
 62
     2
100
AcDbLine
 10
38.04478644558299
 20
-88.44064061543179
 30
0.0
 11
38.04478644558299
 21
-85.38683109162059
 31
0.0
  0
LINE
  5
158
102
{ACAD_REACTORS
330
21E
330
21F
102
}
330
71
100
AcDbEntity
  8
0
  6
Continuous
 62
     2
100
AcDbLine
 10
39.28529085583588
 20
-85.38683109162059
 30
0.0
 11
39.28529085583588
 21
-88.44064061543179
 31
0.0
  0
LINE
  5
159
102
{ACAD_REACTORS
330
21E
330
21F
102
}
330
71
100
AcDbEntity
  8
0
  6
Continuous
 62
     2
100
AcDbLine
 10
38.04478644558299
 20
-85.38683109162059
 30
0.0
 11
39.28529085583588
 21
-85.38683109162059
 31
0.0
  0
LINE
  5
15A
102
{ACAD_REACTORS
330
21C
330
21D
102
}
330
71
100
AcDbEntity
  8
0
  6
Continuous
 62
     2
100
AcDbLine
 10
41.50388528186667
 20
-87.65290883013807
 30
0.0
 11
42.20047621993217
 21
-88.44064061543179
 31
0.0
  0
LINE
  5
15B
102
{ACAD_REACTORS
330
21C
330
21D
102
}
330
71
100
AcDbEntity
  8
0
  6
Continuous
 62
     2
100
AcDbLine
 10
42.20047621993217
 20
-88.44064061543179
 30
0.0
 11
43.60320043768047
 21
-88.44064061543179
 31
0.0
  0
LINE
  5
15C
102
{ACAD_REACTORS
330
21C
330
21D
102
}
330
71
100
AcDbEntity
  8
0
  6
Continuous
 62
     2
100
AcDbLine
 10
42.20524739074017
 20
-86.8597816216568
 30
0.0
 11
43.60320043768047
 21
-88.44064061543179
 31
0.0
  0
LINE
  5
15D
102
{ACAD_REACTORS
330
21C
330
21D
102
}
330
71
100
AcDbEntity
  8
0
  6
Continuous
 62
     2
100
AcDbLine
 10
42.20524739074017
 20
-86.8597816216568
 30
0.0
 11
43.50777702150668
 21
-85.38683109162059
 31
0.0
  0
LINE
  5
15E
102
{ACAD_REACTORS
330
21C
330
21D
102
}
330
71
100
AcDbEntity
  8
0
  6
Continuous
 62
     2
100
AcDbLine
 10
41.50388528186667
 20
-86.06665441317608
 30
0.0
 11
42.10505280375946
 21
-85.38683109162059
 31
0.0
  0
LINE
  5
15F
102
{ACAD_REACTORS
330
21C
330
21D
102
}
330
71
100
AcDbEntity
  8
0
  6
Continuous
 62
     2
100
AcDbLine
 10
40.90271775997488
 20
-85.38683109162059
 30
0.0
 11
41.50388528186667
 21
-86.06665441317608
 31
0.0
  0
LINE
  5
160
102
{ACAD_REACTORS
330
21C
330
21D
102
}
330
71
100
AcDbEntity
  8
0
  6
Continuous
 62
     2
100
AcDbLine
 10
40.90271775997488
 20
-85.38683109162059
 30
0.0
 11
39.49999354222558
 21
-85.38683109162059
 31
0.0
  0
LINE
  5
161
102
{ACAD_REACTORS
330
212
330
213
102
}
330
71
100
AcDbEntity
  8
0
  6
Continuous
 62
     2
100
AcDbLine
 10
41.59930869803938
 20
-91.79983109160608
 30
0.0
 11
42.79210140020709
 21
-91.79983109160608
 31
0.0
  0
LINE
  5
162
102
{ACAD_REACTORS
330
212
330
213
102
}
330
71
100
AcDbEntity
  8
0
  6
Continuous
 62
     2
100
AcDbLine
 10
42.79210140020709
 20
-91.79983109160608
 30
0.0
 11
42.79210140020709
 21
-89.53128687391859
 31
0.0
  0
LINE
  5
163
102
{ACAD_REACTORS
330
212
330
213
102
}
330
71
100
AcDbEntity
  8
0
  6
Continuous
 62
     2
100
AcDbLine
 10
42.79210140020709
 20
-89.53128687391859
 30
0.0
 11
43.60320043768047
 21
-89.53128687391859
 31
0.0
  0
LINE
  5
164
102
{ACAD_REACTORS
330
212
330
213
102
}
330
71
100
AcDbEntity
  8
0
  6
Continuous
 62
     2
100
AcDbLine
 10
43.60320043768047
 20
-89.53128687391859
 30
0.0
 11
43.60320043768047
 21
-88.746021567795
 31
0.0
  0
LINE
  5
165
102
{ACAD_REACTORS
330
212
330
213
102
}
330
71
100
AcDbEntity
  8
0
  6
Continuous
 62
     2
100
AcDbLine
 10
40.21825491905179
 20
-88.74602156779548
 30
0.0
 11
43.60320043768047
 21
-88.746021567795
 31
0.0
  0
LINE
  5
166
102
{ACAD_REACTORS
330
212
330
213
102
}
330
71
100
AcDbEntity
  8
0
  6
Continuous
 62
     2
100
AcDbLine
 10
41.59930869803938
 20
-89.53128687391859
 30
0.0
 11
41.59930869803938
 21
-91.79983109160608
 31
0.0
  0
LINE
  5
167
102
{ACAD_REACTORS
330
214
330
215
102
}
330
71
100
AcDbEntity
  8
0
  6
Continuous
 62
     2
100
AcDbLine
 10
18.96982226256017
 20
-89.82095094204158
 30
0.0
 11
18.96982226256017
 21
-89.2390995353465
 31
0.0
  0
LINE
  5
168
102
{ACAD_REACTORS
330
214
330
215
102
}
330
71
100
AcDbEntity
  8
0
  6
Continuous
 62
     2
100
AcDbLine
 10
18.96982226256017
 20
-87.02081633541027
 30
0.0
 11
18.96982226256017
 21
-86.41528104690349
 31
0.0
  0
LINE
  5
169
330
71
100
AcDbEntity
  8
1
  6
Continuous
 62
     6
100
AcDbLine
 10
-2.49999915283661
 20
-99.09333109162239
 30
0.0
 11
11.45519632041336
 21
-99.0933310916225
 31
0.0
  0
LINE
  5
16A
330
71
100
AcDbEntity
  8
1
  6
Continuous
 62
     6
100
AcDbLine
 10
-52.49999915283684
 20
-99.09333109162239
 30
0.0
 11
-57.54480367958661
 21
-99.09333109162239
 31
0.0
  0
LINE
  5
16B
330
71
100
AcDbEntity
  8
1
  6
Continuous
 62
     6
100
AcDbLine
 10
97.50000084716336
 20
-99.09333109162239
 30
0.0
 11
141.0000008471634
 21
-99.09333109162239
 31
0.0
  0
LINE
  5
16C
330
71
100
AcDbEntity
  8
1
  6
Continuous
 62
     6
100
AcDbLine
 10
47.50000084716336
 20
-99.09333109162239
 30
0.0
 11
29.65519632041338
 21
-99.09333109162239
 31
0.0
  0
LINE
  5
16D
330
71
100
AcDbEntity
  8
1
  6
Continuous
 62
     2
100
AcDbLine
 10
141.0000008471634
 20
-99.09333109162239
 30
0.0
 11
146.0000008471624
 21
-99.09333109162239
 31
0.0
  0
LINE
  5
16E
330
71
100
AcDbEntity
  8
1
  6
Continuous
 62
     2
100
AcDbLine
 10
141.0000008471634
 20
-99.09333109162239
 30
0.0
 11
141.0000008471634
 21
-104.0933310916225
 31
0.0
  0
LINE
  5
16F
330
71
100
AcDbEntity
  8
1
  6
Continuous
 62
     6
100
AcDbLine
 10
11.45519632041336
 20
-82.09333109162239
 30
0.0
 11
47.85519632041329
 21
-82.09333109162239
 31
0.0
  0
LINE
  5
170
330
71
100
AcDbEntity
  8
1
  6
Continuous
 62
     2
100
AcDbLine
 10
146.0000008471624
 20
-104.0933310916225
 30
0.0
 11
146.0000008471624
 21
-99.09333109162239
 31
0.0
  0
LINE
  5
171
330
71
100
AcDbEntity
  8
1
  6
Continuous
 62
     2
100
AcDbLine
 10
146.0000008471624
 20
-104.0933310916225
 30
0.0
 11
141.0000008471634
 21
-104.0933310916225
 31
0.0
  0
LINE
  5
172
330
71
100
AcDbEntity
  8
1
  6
Continuous
 62
     2
100
AcDbLine
 10
141.0000008471634
 20
-104.0933310916225
 30
0.0
 11
97.50000084716336
 21
-104.0933310916225
 31
0.0
  0
LINE
  5
173
330
71
100
AcDbEntity
  8
1
  6
Continuous
 62
     6
100
AcDbLine
 10
141.0000008471651
 20
-82.09333109162239
 30
0.0
 11
141.0000008471643
 21
-49.09333109162228
 31
0.0
  0
LINE
  5
174
330
71
100
AcDbEntity
  8
1
  6
Continuous
 62
     2
100
AcDbLine
 10
146.0000008471624
 20
105.9066689083776
 30
0.0
 11
-2.49999915283661
 21
105.9066689083776
 31
0.0
  0
LINE
  5
175
330
71
100
AcDbEntity
  8
1
  6
Continuous
 62
     6
100
AcDbLine
 10
141.0000008471624
 20
85.90666890837761
 30
0.0
 11
-145.9999991528357
 21
85.90666890837761
 31
0.0
  0
LINE
  5
176
330
71
100
AcDbEntity
  8
1
  6
Continuous
 62
     2
100
AcDbLine
 10
141.0000008471643
 20
-49.09333109162228
 30
0.0
 11
146.0000008471624
 21
-49.09333109162228
 31
0.0
  0
LINE
  5
177
330
71
100
AcDbEntity
  8
1
  6
Continuous
 62
     6
100
AcDbLine
 10
141.0000008471643
 20
-49.09333109162228
 30
0.0
 11
141.0000008471638
 21
0.90666890837753
 31
0.0
  0
LINE
  5
178
330
71
100
AcDbEntity
  8
1
  6
Continuous
 62
     2
100
AcDbLine
 10
146.0000008471624
 20
-49.09333109162228
 30
0.0
 11
146.0000008471624
 21
0.90666890837753
 31
0.0
  0
LINE
  5
179
330
71
100
AcDbEntity
  8
1
  6
Continuous
 62
     2
100
AcDbLine
 10
141.0000008471638
 20
0.90666890837753
 30
0.0
 11
146.0000008471624
 21
0.90666890837753
 31
0.0
  0
LINE
  5
17A
330
71
100
AcDbEntity
  8
1
  6
Continuous
 62
     6
100
AcDbLine
 10
141.0000008471638
 20
0.90666890837753
 30
0.0
 11
141.0000008471626
 21
50.90666890837761
 31
0.0
  0
LINE
  5
17B
330
71
100
AcDbEntity
  8
1
  6
Continuous
 62
     2
100
AcDbLine
 10
146.0000008471624
 20
0.90666890837753
 30
0.0
 11
146.0000008471624
 21
50.90666890837761
 31
0.0
  0
LINE
  5
17C
330
71
100
AcDbEntity
  8
1
  6
Continuous
 62
     2
100
AcDbLine
 10
141.0000008471626
 20
50.90666890837761
 30
0.0
 11
146.0000008471624
 21
50.90666890837761
 31
0.0
  0
LINE
  5
17D
330
71
100
AcDbEntity
  8
1
  6
Continuous
 62
     6
100
AcDbLine
 10
141.0000008471626
 20
50.90666890837761
 30
0.0
 11
141.0000008471624
 21
85.90666890837761
 31
0.0
  0
LINE
  5
17E
330
71
100
AcDbEntity
  8
1
  6
Continuous
 62
     2
100
AcDbLine
 10
146.0000008471624
 20
50.90666890837761
 30
0.0
 11
146.0000008471624
 21
105.9066689083776
 31
0.0
  0
LINE
  5
17F
330
71
100
AcDbEntity
  8
1
  6
Continuous
 62
     2
100
AcDbLine
 10
146.0000008471624
 20
-99.09333109162239
 30
0.0
 11
146.0000008471624
 21
-49.09333109162228
 31
0.0
  0
LINE
  5
180
330
71
100
AcDbEntity
  8
1
  6
Continuous
 62
     2
100
AcDbLine
 10
-2.49999915283661
 20
105.9066689083776
 30
0.0
 11
-150.9999991528357
 21
105.9066689083776
 31
0.0
  0
LINE
  5
181
330
71
100
AcDbEntity
  8
1
  6
Continuous
 62
     2
100
AcDbLine
 10
-2.49999915283661
 20
105.9066689083776
 30
0.0
 11
-2.49999915283661
 21
96.69797706367629
 31
0.0
  0
LINE
  5
182
330
71
100
AcDbEntity
  8
1
  6
Continuous
 62
     2
100
AcDbLine
 10
-150.9999991528357
 20
-104.0933310916225
 30
0.0
 11
-145.9999991528347
 21
-104.0933310916225
 31
0.0
  0
LINE
  5
183
330
71
100
AcDbEntity
  8
1
  6
Continuous
 62
     2
100
AcDbLine
 10
-150.9999991528357
 20
105.9066689083776
 30
0.0
 11
-150.9999991528357
 21
50.90666890837761
 31
0.0
  0
LINE
  5
184
330
71
100
AcDbEntity
  8
1
  6
Continuous
 62
     6
100
AcDbLine
 10
-145.9999991528357
 20
85.90666890837761
 30
0.0
 11
-145.9999991528356
 21
50.90666890837761
 31
0.0
  0
LINE
  5
185
330
71
100
AcDbEntity
  8
1
  6
Continuous
 62
     2
100
AcDbLine
 10
-150.9999991528357
 20
50.90666890837761
 30
0.0
 11
-145.9999991528356
 21
50.90666890837761
 31
0.0
  0
LINE
  5
186
330
71
100
AcDbEntity
  8
1
  6
Continuous
 62
     2
100
AcDbLine
 10
-150.9999991528357
 20
50.90666890837761
 30
0.0
 11
-150.9999991528357
 21
0.90666890837753
 31
0.0
  0
LINE
  5
187
330
71
100
AcDbEntity
  8
1
  6
Continuous
 62
     6
100
AcDbLine
 10
-145.9999991528356
 20
50.90666890837761
 30
0.0
 11
-145.9999991528351
 21
0.90666890837753
 31
0.0
  0
LINE
  5
188
330
71
100
AcDbEntity
  8
1
  6
Continuous
 62
     2
100
AcDbLine
 10
-150.9999991528357
 20
0.90666890837753
 30
0.0
 11
-145.9999991528351
 21
0.90666890837753
 31
0.0
  0
LINE
  5
189
330
71
100
AcDbEntity
  8
1
  6
Continuous
 62
     2
100
AcDbLine
 10
-150.9999991528357
 20
0.90666890837753
 30
0.0
 11
-150.9999991528357
 21
-49.09333109162228
 31
0.0
  0
LINE
  5
18A
330
71
100
AcDbEntity
  8
1
  6
Continuous
 62
     6
100
AcDbLine
 10
-145.9999991528351
 20
0.90666890837753
 30
0.0
 11
-145.9999991528349
 21
-49.09333109162228
 31
0.0
  0
LINE
  5
18B
330
71
100
AcDbEntity
  8
1
  6
Continuous
 62
     2
100
AcDbLine
 10
-150.9999991528357
 20
-49.09333109162228
 30
0.0
 11
-145.9999991528349
 21
-49.09333109162228
 31
0.0
  0
LINE
  5
18C
330
71
100
AcDbEntity
  8
1
  6
Continuous
 62
     2
100
AcDbLine
 10
-150.9999991528357
 20
-49.09333109162228
 30
0.0
 11
-150.9999991528357
 21
-99.09333109162239
 31
0.0
  0
LINE
  5
18D
330
71
100
AcDbEntity
  8
1
  6
Continuous
 62
     6
100
AcDbLine
 10
-145.9999991528349
 20
-49.09333109162228
 30
0.0
 11
-145.9999991528347
 21
-99.09333109162239
 31
0.0
  0
LINE
  5
18E
330
71
100
AcDbEntity
  8
1
  6
Continuous
 62
     2
100
AcDbLine
 10
-102.4999991528366
 20
-104.0933310916225
 30
0.0
 11
-102.4999991528366
 21
-99.09333109162239
 31
0.0
  0
LINE
  5
18F
330
71
100
AcDbEntity
  8
1
  6
Continuous
 62
     2
100
AcDbLine
 10
-102.4999991528366
 20
-104.0933310916225
 30
0.0
 11
-52.49999915283684
 21
-104.0933310916225
 31
0.0
  0
LINE
  5
190
330
71
100
AcDbEntity
  8
1
  6
Continuous
 62
     2
100
AcDbLine
 10
-52.49999915283684
 20
-104.0933310916225
 30
0.0
 11
-52.49999915283684
 21
-99.09333109162239
 31
0.0
  0
LINE
  5
191
330
71
100
AcDbEntity
  8
1
  6
Continuous
 62
     2
100
AcDbLine
 10
-52.49999915283684
 20
-104.0933310916225
 30
0.0
 11
-2.49999915283661
 21
-104.0933310916225
 31
0.0
  0
LINE
  5
192
330
71
100
AcDbEntity
  8
1
  6
Continuous
 62
     2
100
AcDbLine
 10
-2.49999915283661
 20
-104.0933310916225
 30
0.0
 11
-2.49999915283661
 21
-99.09333109162239
 31
0.0
  0
LINE
  5
193
330
71
100
AcDbEntity
  8
1
  6
Continuous
 62
     2
100
AcDbLine
 10
-2.49999915283661
 20
-104.0933310916225
 30
0.0
 11
47.50000084716336
 21
-104.0933310916225
 31
0.0
  0
LINE
  5
194
330
71
100
AcDbEntity
  8
1
  6
Continuous
 62
     2
100
AcDbLine
 10
47.50000084716336
 20
-104.0933310916225
 30
0.0
 11
47.50000084716336
 21
-99.09333109162239
 31
0.0
  0
LINE
  5
195
330
71
100
AcDbEntity
  8
1
  6
Continuous
 62
     2
100
AcDbLine
 10
97.50000084716336
 20
-104.0933310916225
 30
0.0
 11
97.50000084716336
 21
-99.09333109162239
 31
0.0
  0
LINE
  5
196
330
71
100
AcDbEntity
  8
1
  6
Continuous
 62
     2
100
AcDbLine
 10
97.50000084716336
 20
-104.0933310916225
 30
0.0
 11
47.50000084716336
 21
-104.0933310916225
 31
0.0
  0
LINE
  5
197
330
71
100
AcDbEntity
  8
1
  6
Continuous
 62
     2
100
AcDbLine
 10
-145.9999991528347
 20
-99.09333109162239
 30
0.0
 11
-145.9999991528347
 21
-104.0933310916225
 31
0.0
  0
LINE
  5
198
330
71
100
AcDbEntity
  8
1
  6
Continuous
 62
     2
100
AcDbLine
 10
-145.9999991528347
 20
-104.0933310916225
 30
0.0
 11
-102.4999991528366
 21
-104.0933310916225
 31
0.0
  0
LINE
  5
199
330
71
100
AcDbEntity
  8
1
  6
Continuous
 62
     2
100
AcDbLine
 10
-145.9999991528347
 20
-99.09333109162239
 30
0.0
 11
-150.9999991528357
 21
-99.09333109162239
 31
0.0
  0
LINE
  5
19A
330
71
100
AcDbEntity
  8
1
  6
Continuous
 62
     2
100
AcDbLine
 10
-150.9999991528357
 20
-99.09333109162239
 30
0.0
 11
-150.9999991528357
 21
-104.0933310916225
 31
0.0
  0
LINE
  5
19B
330
71
100
AcDbEntity
  8
1
  6
Continuous
 62
     6
100
AcDbLine
 10
141.0000008471634
 20
-99.09333109162239
 30
0.0
 11
141.0000008471647
 21
-90.59333109162239
 31
0.0
  0
LINE
  5
19C
330
71
100
AcDbEntity
  8
1
  6
Continuous
 62
     6
100
AcDbLine
 10
47.85519632041329
 20
-99.0933310916225
 30
0.0
 11
97.50000084716336
 21
-99.09333109162239
 31
0.0
  0
LINE
  5
19D
330
71
100
AcDbEntity
  8
1
  6
Continuous
 62
     6
100
AcDbLine
 10
-104.7999991528369
 20
-99.0933310916225
 30
0.0
 11
-102.4999991528366
 21
-99.09333109162239
 31
0.0
  0
LINE
  5
19E
330
71
100
AcDbEntity
  8
1
  6
Continuous
 62
     6
100
AcDbLine
 10
-2.49999915283661
 20
-99.09333109162239
 30
0.0
 11
-52.49999915283684
 21
-99.09333109162239
 31
0.0
  0
LINE
  5
19F
330
71
100
AcDbEntity
  8
1
  6
Continuous
 62
     7
100
AcDbLine
 10
11.45519632041336
 20
-82.09333109162239
 30
0.0
 11
11.45519632041336
 21
-94.8433310916225
 31
0.0
  0
LINE
  5
1A0
330
71
100
AcDbEntity
  8
1
  6
Continuous
 62
     7
100
AcDbLine
 10
47.85519632041329
 20
-82.09333109162239
 30
0.0
 11
47.85519632041329
 21
-94.84333109162239
 31
0.0
  0
LINE
  5
1A1
330
71
100
AcDbEntity
  8
1
  6
Continuous
 62
     6
100
AcDbLine
 10
-104.7999991528369
 20
-99.0933310916225
 30
0.0
 11
-110.9999991528349
 21
-99.09333109162239
 31
0.0
  0
LINE
  5
1A2
330
71
100
AcDbEntity
  8
1
  6
Continuous
 62
     6
100
AcDbLine
 10
47.85519632041329
 20
-99.0933310916225
 30
0.0
 11
47.50000084716336
 21
-99.09333109162239
 31
0.0
  0
LINE
  5
1A3
330
71
100
AcDbEntity
  8
1
  6
Continuous
 62
     6
100
AcDbLine
 10
141.0000008471651
 20
-82.09333109162239
 30
0.0
 11
141.0000008471647
 21
-90.59333109162239
 31
0.0
  0
LINE
  5
1A4
330
71
100
AcDbEntity
  8
1
  6
Continuous
 62
     6
100
AcDbLine
 10
-110.9999991528349
 20
-99.09333109162239
 30
0.0
 11
-145.9999991528347
 21
-99.09333109162239
 31
0.0
  0
LINE
  5
1A5
330
71
100
AcDbEntity
  8
1
  6
Continuous
 62
     2
100
AcDbLine
 10
15.69185120697597
 20
-76.71833109162247
 30
0.0
 11
20.69185120697597
 21
-75.46833109162247
 31
0.0
  0
LINE
  5
1A6
330
71
100
AcDbEntity
  8
1
  6
Continuous
 62
     2
100
AcDbLine
 10
15.69185120697597
 20
-79.21833109162247
 30
0.0
 11
15.69185120697597
 21
-76.71833109162247
 31
0.0
  0
LINE
  5
1A7
330
71
100
AcDbEntity
  8
1
  6
Continuous
 62
     2
100
AcDbLine
 10
20.69185120697597
 20
-80.46833109162247
 30
0.0
 11
15.69185120697597
 21
-79.21833109162247
 31
0.0
  0
LINE
  5
1A8
330
71
100
AcDbEntity
  8
1
  6
Continuous
 62
     2
100
AcDbLine
 10
20.69185120697597
 20
-75.46833109162247
 30
0.0
 11
20.69185120697597
 21
-80.46833109162247
 31
0.0
  0
LINE
  5
1A9
330
71
100
AcDbEntity
  8
1
  6
Continuous
 62
     7
100
AcDbLine
 10
11.45519632041336
 20
-94.8433310916225
 30
0.0
 11
29.65519632041338
 21
-94.84333109162239
 31
0.0
  0
LINE
  5
1AA
330
71
100
AcDbEntity
  8
1
  6
Continuous
 62
     7
100
AcDbLine
 10
11.45519632041336
 20
-94.8433310916225
 30
0.0
 11
11.45519632041336
 21
-99.0933310916225
 31
0.0
  0
LINE
  5
1AB
330
71
100
AcDbEntity
  8
1
  6
Continuous
 62
     7
100
AcDbLine
 10
47.85519632041329
 20
-94.84333109162239
 30
0.0
 11
47.85519632041329
 21
-99.0933310916225
 31
0.0
  0
LINE
  5
1AC
330
71
100
AcDbEntity
  8
1
  6
Continuous
 62
     7
100
AcDbLine
 10
29.65519632041338
 20
-94.84333109162239
 30
0.0
 11
29.65519632041338
 21
-99.09333109162239
 31
0.0
  0
LINE
  5
1AD
330
71
100
AcDbEntity
  8
1
  6
Continuous
 62
     6
100
AcDbLine
 10
29.65519632041338
 20
-99.09333109162239
 30
0.0
 11
11.45519632041336
 21
-99.0933310916225
 31
0.0
  0
LINE
  5
1AE
330
71
100
AcDbEntity
  8
1
  6
Continuous
 62
     7
100
AcDbLine
 10
29.65519632041338
 20
-94.84333109162239
 30
0.0
 11
47.85519632041329
 21
-94.84333109162239
 31
0.0
  0
LINE
  5
1AF
330
71
100
AcDbEntity
  8
1
  6
Continuous
 62
     6
100
AcDbLine
 10
11.45519632041336
 20
-73.59333109162239
 30
0.0
 11
141.0000008471651
 21
-73.59333109162239
 31
0.0
  0
ARC
  5
1B0
102
{ACAD_REACTORS
330
218
330
219
102
}
330
71
100
AcDbEntity
  8
0
  6
Continuous
 62
     2
100
AcDbCircle
 10
26.84684431937336
 20
-90.2729263297008
 30
0.0
 40
0.7717997786796947
100
AcDbArc
 50
321.8795802028417
 51
38.12041979715329
  0
ARC
  5
1B1
102
{ACAD_REACTORS
330
218
330
219
102
}
330
71
100
AcDbEntity
  8
0
  6
Continuous
 62
     2
100
AcDbCircle
 10
27.04658435571977
 20
-90.42965750782079
 30
0.0
 40
0.5179085730137326
100
AcDbArc
 50
218.1204197971934
 51
321.8795802028013
  0
ARC
  5
1B2
102
{ACAD_REACTORS
330
218
330
219
102
}
330
71
100
AcDbEntity
  8
0
  6
Continuous
 62
     2
100
AcDbCircle
 10
27.24632439206587
 20
-90.2729263297008
 30
0.0
 40
0.7717997786794605
100
AcDbArc
 50
141.8795802028361
 51
218.1204197971688
  0
ARC
  5
1B3
102
{ACAD_REACTORS
330
218
330
219
102
}
330
71
100
AcDbEntity
  8
0
  6
Continuous
 62
     2
100
AcDbCircle
 10
27.04658435571977
 20
-90.11619515158029
 30
0.0
 40
0.5179085730133026
100
AcDbArc
 50
38.12041979714679
 51
141.8795802028585
  0
ARC
  5
1B4
102
{ACAD_REACTORS
330
210
330
211
102
}
330
71
100
AcDbEntity
  8
0
  6
Continuous
 62
     2
100
AcDbCircle
 10
23.98457022015589
 20
-91.68339269510898
 30
0.0
 40
2.227384008973478
100
AcDbArc
 50
58.06909105004071
 51
71.55192388186731
  0
ARC
  5
1B5
102
{ACAD_REACTORS
330
210
330
211
102
}
330
71
100
AcDbEntity
  8
0
  6
Continuous
 62
     2
100
AcDbCircle
 10
24.24629792111466
 20
-90.0678549003618
 30
0.0
 40
0.5115800601948765
100
AcDbArc
 50
113.3722778881988
 51
151.4785267423046
  0
ARC
  5
1B6
102
{ACAD_REACTORS
330
210
330
211
102
}
330
71
100
AcDbEntity
  8
0
  6
Continuous
 62
     2
100
AcDbCircle
 10
24.62365517919497
 20
-90.2729263297008
 30
0.0
 40
0.9410597353332576
100
AcDbArc
 50
151.478526742267
 51
208.5214732577057
  0
ARC
  5
1B7
102
{ACAD_REACTORS
330
210
330
211
102
}
330
71
100
AcDbEntity
  8
0
  6
Continuous
 62
     2
100
AcDbCircle
 10
23.82669734506297
 20
-86.96024538444439
 30
0.0
 40
4.852596863498138
100
AcDbArc
 50
275.1581447696249
 51
285.9799912583529
  0
ARC
  5
1B8
102
{ACAD_REACTORS
330
210
330
211
102
}
330
71
100
AcDbEntity
  8
0
  6
Continuous
 62
     2
100
AcDbCircle
 10
24.11555343979887
 20
-90.16013596766598
 30
0.0
 40
1.63969512393938
100
AcDbArc
 50
195.0618917770896
 51
275.1581447696396
  0
ARC
  5
1B9
102
{ACAD_REACTORS
330
210
330
211
102
}
330
71
100
AcDbEntity
  8
0
  6
Continuous
 62
     2
100
AcDbCircle
 10
23.69642559633607
 20
-90.2729263297008
 30
0.0
 40
1.205656168390941
100
AcDbArc
 50
164.9381082228764
 51
195.0618917770949
  0
ARC
  5
1BA
102
{ACAD_REACTORS
330
210
330
211
102
}
330
71
100
AcDbEntity
  8
0
  6
Continuous
 62
     2
100
AcDbCircle
 10
24.11555343979887
 20
-90.3857166917357
 30
0.0
 40
1.639695123940507
100
AcDbArc
 50
84.84185523036223
 51
164.9381082228864
  0
ARC
  5
1BB
102
{ACAD_REACTORS
330
214
330
215
102
}
330
71
100
AcDbEntity
  8
0
  6
Continuous
 62
     2
100
AcDbCircle
 10
19.28553918563696
 20
-89.2390995353465
 30
0.0
 40
0.3157169230765298
100
AcDbArc
 50
115.3740086783507
 51
180.0
  0
ARC
  5
1BC
102
{ACAD_REACTORS
330
214
330
215
102
}
330
71
100
AcDbEntity
  8
0
  6
Continuous
 62
     2
100
AcDbCircle
 10
19.28553918563696
 20
-87.02081633541027
 30
0.0
 40
0.3157169230767884
100
AcDbArc
 50
180.0
 51
244.6259913216493
  0
ARC
  5
1BD
102
{ACAD_REACTORS
330
214
330
215
102
}
330
71
100
AcDbEntity
  8
0
  6
Continuous
 62
     2
100
AcDbCircle
 10
19.29115532094698
 20
-88.11811599447259
 30
0.0
 40
2.018561131933266
100
AcDbArc
 50
269.8110329575861
 51
90.18896704241396
  0
ARC
  5
1BE
102
{ACAD_REACTORS
330
214
330
215
102
}
330
71
100
AcDbEntity
  8
0
  6
Continuous
 62
     2
100
AcDbCircle
 10
19.28553918563696
 20
-89.82095094204158
 30
0.0
 40
0.3157169230767884
100
AcDbArc
 50
180.0
 51
269.8110329574554
  0
ARC
  5
1BF
102
{ACAD_REACTORS
330
212
330
213
102
}
330
71
100
AcDbEntity
  8
0
  6
Continuous
 62
     2
100
AcDbCircle
 10
40.34899940036758
 20
-90.0678549003618
 30
0.0
 40
0.5115800601944166
100
AcDbArc
 50
109.337143219486
 51
151.4785267424228
  0
ARC
  5
1C0
102
{ACAD_REACTORS
330
212
330
213
102
}
330
71
100
AcDbEntity
  8
0
  6
Continuous
 62
     2
100
AcDbCircle
 10
40.34899940036758
 20
-90.47799775903928
 30
0.0
 40
0.5115800601960279
100
AcDbArc
 50
208.5214732576862
 51
246.6277221118442
  0
ARC
  5
1C1
102
{ACAD_REACTORS
330
212
330
213
102
}
330
71
100
AcDbEntity
  8
0
  6
Continuous
 62
     2
100
AcDbCircle
 10
39.79912707559018
 20
-90.2729263297008
 30
0.0
 40
1.205656168393009
100
AcDbArc
 50
164.9381082229029
 51
195.0618917770958
  0
ARC
  5
1C2
102
{ACAD_REACTORS
330
212
330
213
102
}
330
71
100
AcDbEntity
  8
0
  6
Continuous
 62
     2
100
AcDbCircle
 10
40.21825491905179
 20
-90.3857166917357
 30
0.0
 40
1.639695123940214
100
AcDbArc
 50
90.0
 51
164.938108222895
  0
ARC
  5
1C3
102
{ACAD_REACTORS
330
216
330
217
102
}
330
71
100
AcDbEntity
  8
0
  6
Continuous
 62
     2
100
AcDbCircle
 10
30.79125982634807
 20
-86.91373585352648
 30
0.0
 40
1.526904761905882
100
AcDbArc
 50
90.0
 51
270.0
  0
ARC
  5
1C4
102
{ACAD_REACTORS
330
21A
330
21B
102
}
330
71
100
AcDbEntity
  8
0
  6
Continuous
 62
     2
100
AcDbCircle
 10
24.04856908112228
 20
-86.40280076173178
 30
0.0
 40
0.3528638246711182
100
AcDbArc
 50
270.0
 51
90.0
  0
ARC
  5
1C5
102
{ACAD_REACTORS
330
214
330
215
102
}
330
71
100
AcDbEntity
  8
0
  6
Continuous
 62
     2
100
AcDbCircle
 10
16.70999049910526
 20
-86.41510357025538
 30
0.0
 40
0.3157169230761951
100
AcDbArc
 50
90.0
 51
180.0
  0
ARC
  5
1C6
102
{ACAD_REACTORS
330
214
330
215
102
}
330
71
100
AcDbEntity
  8
0
  6
Continuous
 62
     2
100
AcDbCircle
 10
18.70840820768987
 20
-88.12995793537809
 30
0.0
 40
0.9118975235576161
100
AcDbArc
 50
115.1944106485284
 51
244.8055893514876
  0
ARC
  5
1C7
102
{ACAD_REACTORS
330
214
330
215
102
}
330
71
100
AcDbEntity
  8
0
  6
Continuous
 62
     2
100
AcDbCircle
 10
18.18582376011489
 20
-89.24078768144088
 30
0.0
 40
0.3157169230765895
100
AcDbArc
 50
0.0
 51
64.80558935146145
  0
ARC
  5
1C8
102
{ACAD_REACTORS
330
214
330
215
102
}
330
71
100
AcDbEntity
  8
0
  6
Continuous
 62
     2
100
AcDbCircle
 10
16.11609582235877
 20
-91.3755864762228
 30
0.0
 40
0.4242446153827988
100
AcDbArc
 50
180.0
 51
270.0
  0
ARC
  5
1C9
102
{ACAD_REACTORS
330
216
330
217
102
}
330
71
100
AcDbEntity
  8
0
  6
Continuous
 62
     2
100
AcDbCircle
 10
31.00753183651327
 20
-86.757004675406
 30
0.0
 40
0.5179085730135238
100
AcDbArc
 50
38.12041979714358
 51
141.8795802028494
  0
ARC
  5
1CA
102
{ACAD_REACTORS
330
216
330
217
102
}
330
71
100
AcDbEntity
  8
0
  6
Continuous
 62
     2
100
AcDbCircle
 10
31.20727187285957
 20
-86.91373585352648
 30
0.0
 40
0.7717997786796807
100
AcDbArc
 50
141.8795802028409
 51
218.1204197971558
  0
ARC
  5
1CB
102
{ACAD_REACTORS
330
218
330
219
102
}
330
71
100
AcDbEntity
  8
0
  6
Continuous
 62
     2
100
AcDbCircle
 10
27.04658435571977
 20
-89.73435131939749
 30
0.0
 40
2.065479772208505
100
AcDbArc
 50
242.4518518243404
 51
297.5481481756871
  0
ARC
  5
1CC
102
{ACAD_REACTORS
330
218
330
219
102
}
330
71
100
AcDbEntity
  8
0
  6
Continuous
 62
     2
100
AcDbCircle
 10
27.04658435571977
 20
-90.81150134000359
 30
0.0
 40
2.065479772208569
100
AcDbArc
 50
62.45185182430628
 51
117.5481481756662
  0
ARC
  5
1CD
102
{ACAD_REACTORS
330
218
330
219
102
}
330
71
100
AcDbEntity
  8
0
  6
Continuous
 62
     2
100
AcDbCircle
 10
26.76564446388647
 20
-90.2729263297008
 30
0.0
 40
1.458034083651487
100
AcDbArc
 50
117.5481481756622
 51
242.4518518243378
  0
ARC
  5
1CE
102
{ACAD_REACTORS
330
218
330
219
102
}
330
71
100
AcDbEntity
  8
0
  6
Continuous
 62
     2
100
AcDbCircle
 10
27.32752424755307
 20
-90.2729263297008
 30
0.0
 40
1.458034083652003
100
AcDbArc
 50
297.548148175701
 51
62.45185182429896
  0
ARC
  5
1CF
102
{ACAD_REACTORS
330
216
330
217
102
}
330
71
100
AcDbEntity
  8
0
  6
Continuous
 62
     2
100
AcDbCircle
 10
31.00753183651327
 20
-87.0704670316469
 30
0.0
 40
0.5179085730134427
100
AcDbArc
 50
218.1204197971506
 51
321.8795802028564
  0
ARC
  5
1D0
102
{ACAD_REACTORS
330
216
330
217
102
}
330
71
100
AcDbEntity
  8
0
  6
Continuous
 62
     2
100
AcDbCircle
 10
30.80779180016708
 20
-86.91373585352648
 30
0.0
 40
0.7717997786796373
100
AcDbArc
 50
321.8795802028437
 51
38.12041979715956
  0
ARC
  5
1D1
102
{ACAD_REACTORS
330
214
330
215
102
}
330
71
100
AcDbEntity
  8
0
  6
Continuous
 62
     2
100
AcDbCircle
 10
21.58940791307558
 20
-91.3755864762228
 30
0.0
 40
0.4242446153832873
100
AcDbArc
 50
270.0
 51
0.0
  0
ARC
  5
1D2
102
{ACAD_REACTORS
330
214
330
215
102
}
330
71
100
AcDbEntity
  8
0
  6
Continuous
 62
     2
100
AcDbCircle
 10
21.58940791307558
 20
-85.81107570702258
 30
0.0
 40
0.4242446153838806
100
AcDbArc
 50
0.0
 51
90.0
  0
ARC
  5
1D3
102
{ACAD_REACTORS
330
214
330
215
102
}
330
71
100
AcDbEntity
  8
0
  6
Continuous
 62
     2
100
AcDbCircle
 10
16.11609582235877
 20
-85.81107570702258
 30
0.0
 40
0.4242446153837989
100
AcDbArc
 50
90.0
 51
180.0
  0
ARC
  5
1D4
102
{ACAD_REACTORS
330
214
330
215
102
}
330
71
100
AcDbEntity
  8
0
  6
Continuous
 62
     2
100
AcDbCircle
 10
18.18582376011489
 20
-90.77155861297248
 30
0.0
 40
0.3157169230767067
100
AcDbArc
 50
270.0
 51
0.0
  0
ARC
  5
1D5
102
{ACAD_REACTORS
330
214
330
215
102
}
330
71
100
AcDbEntity
  8
0
  6
Continuous
 62
     2
100
AcDbCircle
 10
18.18582376011489
 20
-87.0191281893159
 30
0.0
 40
0.3157169230761172
100
AcDbArc
 50
295.1944106485386
 51
0.0
  0
ARC
  5
1D6
102
{ACAD_REACTORS
330
214
330
215
102
}
330
71
100
AcDbEntity
  8
0
  6
Continuous
 62
     2
100
AcDbCircle
 10
18.18582376011489
 20
-86.41510357025538
 30
0.0
 40
0.3157169230765895
100
AcDbArc
 50
0.0
 51
90.0
  0
ARC
  5
1D7
102
{ACAD_REACTORS
330
214
330
215
102
}
330
71
100
AcDbEntity
  8
0
  6
Continuous
 62
     2
100
AcDbCircle
 10
16.70999049910526
 20
-90.77155861297248
 30
0.0
 40
0.31571692307568
100
AcDbArc
 50
180.0
 51
270.0
  0
ARC
  5
1D8
102
{ACAD_REACTORS
330
21A
330
21B
102
}
330
71
100
AcDbEntity
  8
0
  6
Continuous
 62
     2
100
AcDbCircle
 10
24.49004160736067
 20
-86.44219673295427
 30
0.0
 40
1.055365641333708
100
AcDbArc
 50
270.0
 51
90.0
  0
ARC
  5
1D9
102
{ACAD_REACTORS
330
212
330
213
102
}
330
71
100
AcDbEntity
  8
0
  6
Continuous
 62
     2
100
AcDbCircle
 10
40.21825491905179
 20
-90.16013596766598
 30
0.0
 40
1.639695123940455
100
AcDbArc
 50
195.0618917771012
 51
275.1581447696762
  0
ARC
  5
1DA
102
{ACAD_REACTORS
330
212
330
213
102
}
330
71
100
AcDbEntity
  8
0
  6
Continuous
 62
     2
100
AcDbCircle
 10
39.92939882431597
 20
-86.96024538444439
 30
0.0
 40
4.852596863498825
100
AcDbArc
 50
275.1581447696364
 51
285.9799912583387
  0
ARC
  5
1DB
102
{ACAD_REACTORS
330
212
330
213
102
}
330
71
100
AcDbEntity
  8
0
  6
Continuous
 62
     2
100
AcDbCircle
 10
40.08727169940877
 20
-88.8624599642927
 30
0.0
 40
2.22738400897275
100
AcDbArc
 50
288.4480761181338
 51
301.9309089499399
  0
ARC
  5
1DC
102
{ACAD_REACTORS
330
212
330
213
102
}
330
71
100
AcDbEntity
  8
0
  6
Continuous
 62
     2
100
AcDbCircle
 10
40.50543943307068
 20
-90.11600574032929
 30
0.0
 40
0.9059297849852801
100
AcDbArc
 50
246.6277221118183
 51
288.4480761180822
  0
ARC
  5
1DD
102
{ACAD_REACTORS
330
212
330
213
102
}
330
71
100
AcDbEntity
  8
0
  6
Continuous
 62
     2
100
AcDbCircle
 10
40.72635665844896
 20
-90.2729263297008
 30
0.0
 40
0.9410597353348862
100
AcDbArc
 50
151.4785267423622
 51
208.5214732576697
  0
ARC
  5
1DE
102
{ACAD_REACTORS
330
212
330
213
102
}
330
71
100
AcDbEntity
  8
0
  6
Continuous
 62
     2
100
AcDbCircle
 10
40.49566939847128
 20
-90.48580988074468
 30
0.0
 40
0.9545230068260935
100
AcDbArc
 50
90.0
 51
109.337143219432
  0
ARC
  5
1DF
102
{ACAD_REACTORS
330
214
330
215
102
}
330
71
100
AcDbEntity
  8
0
  6
Continuous
 62
     2
100
AcDbCircle
 10
19.28553918563696
 20
-86.41528104690349
 30
0.0
 40
0.315716923076071
100
AcDbArc
 50
90.18896704254463
 51
180.0
  0
ARC
  5
1E0
102
{ACAD_REACTORS
330
214
330
215
102
}
330
71
100
AcDbEntity
  8
0
  6
Continuous
 62
     2
100
AcDbCircle
 10
18.75949648754909
 20
-88.12995793537809
 30
0.0
 40
0.911848150144459
100
AcDbArc
 50
295.3740086781764
 51
64.62599132180748
  0
ARC
  5
1E1
102
{ACAD_REACTORS
330
210
330
211
102
}
330
71
100
AcDbEntity
  8
0
  6
Continuous
 62
     2
100
AcDbCircle
 10
23.98457022015589
 20
-88.8624599642921
 30
0.0
 40
2.227384008972736
100
AcDbArc
 50
288.4480761181327
 51
301.9309089499593
  0
ARC
  5
1E2
102
{ACAD_REACTORS
330
210
330
211
102
}
330
71
100
AcDbEntity
  8
0
  6
Continuous
 62
     2
100
AcDbCircle
 10
24.40273795381668
 20
-90.11600574032929
 30
0.0
 40
0.9059297849849164
100
AcDbArc
 50
246.6277221118714
 51
288.4480761181587
  0
ARC
  5
1E3
102
{ACAD_REACTORS
330
210
330
211
102
}
330
71
100
AcDbEntity
  8
0
  6
Continuous
 62
     2
100
AcDbCircle
 10
24.24629792111466
 20
-90.47799775903928
 30
0.0
 40
0.5115800601948065
100
AcDbArc
 50
208.5214732576954
 51
246.6277221118278
  0
ARC
  5
1E4
102
{ACAD_REACTORS
330
210
330
211
102
}
330
71
100
AcDbEntity
  8
0
  6
Continuous
 62
     2
100
AcDbCircle
 10
24.40273795381668
 20
-90.42984691907239
 30
0.0
 40
0.905929784985324
100
AcDbArc
 50
71.55192388185326
 51
113.3722778881286
  0
ARC
  5
1E5
102
{ACAD_REACTORS
330
210
330
211
102
}
330
71
100
AcDbEntity
  8
0
  6
Continuous
 62
     2
100
AcDbCircle
 10
23.82669734506297
 20
-93.58560727495669
 30
0.0
 40
4.852596863498068
100
AcDbArc
 50
74.02000874164739
 51
84.84185523037509
  0
CIRCLE
  5
1E6
102
{ACAD_REACTORS
330
214
330
215
102
}
330
71
100
AcDbEntity
  8
0
  6
Continuous
 62
     2
100
AcDbCircle
 10
18.73568147287628
 20
-88.12995793537809
 30
0.0
 40
0.470978932778511
  0
CIRCLE
  5
1E7
330
71
100
AcDbEntity
  8
1
  6
Continuous
 62
     2
100
AcDbCircle
 10
24.19185120697597
 20
-77.96833109162247
 30
0.0
 40
1.249999999999911
  0
CIRCLE
  5
1E8
330
71
100
AcDbEntity
  8
1
  6
Continuous
 62
     2
100
AcDbCircle
 10
24.19185120697597
 20
-77.96833109162247
 30
0.0
 40
2.5
  0
TEXT
  5
1E9
330
71
100
AcDbEntity
  8
1
 62
     7
100
AcDbText
 10
66.82874404242716
 20
-80.79333109162249
 30
0.0
 40
2.5
  1
/
 41
0.9
  7
CONVERTER_11
100
AcDbText
  0
TEXT
  5
1EB
330
71
100
AcDbEntity
  8
1
 62
     7
100
AcDbText
 10
68.98510853946917
 20
-80.79333109162249
 30
0.0
 40
2.5
  1
00
 41
0.81
  7
CONVERTER_12
100
AcDbText
  0
TEXT
  5
1EC
330
71
100
AcDbEntity
  8
1
 62
     3
100
AcDbText
 10
106.5815925654863
 20
-80.79333109162249
 30
0.0
 40
2.5
  1
20.03.2018
 41
0.81
  7
CONVERTER_12
100
AcDbText
  0
MTEXT
  5
1ED
330
71
100
AcDbEntity
  8
1
 62
     2
100
AcDbMText
 10
106.5815925654863
 20
-74.59333109162247
 30
0.0
 40
1.8
 41
0.0
 71
     1
 72
     1
  1
date
  7
CONVERTER_11
 73
     1
 44
1.32052821128451
  0
MTEXT
  5
1EE
330
71
100
AcDbEntity
  8
1
 62
     2
100
AcDbMText
 10
76.75519632041338
 20
-83.09333109162247
 30
0.0
 40
1.8
 41
0.0
 71
     1
 72
     1
  1
document-type
  7
CONVERTER_11
 73
     1
 44
1.20048019207683
  0
TEXT
  5
1EF
330
71
100
AcDbEntity
  8
1
 62
     3
100
AcDbText
 10
76.75519632041338
 20
-89.29333109162249
 30
0.0
 40
2.5
  1
TECDOC 2D_Productdrawing
 41
0.81
  7
CONVERTER_12
100
AcDbText
  0
MTEXT
  5
1F1
330
71
100
AcDbEntity
  8
1
 62
     2
100
AcDbMText
 10
48.95519632041336
 20
-74.59333109162239
 30
0.0
 40
1.8
 41
0.0
 71
     1
 72
     1
  1
document-No. / RI
  7
CONVERTER_13
 73
     1
 44
1.32052821128451
  0
TEXT
  5
1F2
330
71
100
AcDbEntity
  8
1
 62
     7
100
AcDbText
 10
48.95519632041336
 20
-80.79333109162249
 30
0.0
 40
2.5
  1
40210221
 41
0.81
  7
CONVERTER_12
100
AcDbText
  0
MTEXT
  5
1F4
330
71
100
AcDbEntity
  8
1
 62
     3
100
AcDbMText
 10
136.5407967063257
 20
-80.79333109162229
 30
0.0
 40
2.5
 41
0.0
 71
     8
 72
     1
  1
1:1
  7
CONVERTER_14
 73
     1
 44
1.32052821128451
  0
MTEXT
  5
1F5
330
71
100
AcDbEntity
  8
1
 62
     2
100
AcDbMText
 10
133.1815925654861
 20
-74.59333109162239
 30
0.0
 40
1.8
 41
0.0
 71
     1
 72
     1
  1
scale
  7
CONVERTER_11
 73
     1
 44
1.20048019207683
  0
MTEXT
  5
1F6
330
71
100
AcDbEntity
  8
1
 62
     2
100
AcDbMText
 10
48.95519632041336
 20
-83.09333109162239
 30
0.0
 40
1.8
 41
0.0
 71
     1
 72
     1
  1
ident.-No.
  7
CONVERTER_11
 73
     1
 44
1.20048019207683
  0
TEXT
  5
1F7
330
71
100
AcDbEntity
  8
1
 62
     7
100
AcDbText
 10
49.35519632041309
 20
-89.29333109162249
 30
0.0
 40
2.5
  1
3036770
 41
0.81
  7
CONVERTER_12
100
AcDbText
  0
MTEXT
  5
1F8
330
71
100
AcDbEntity
  8
1
 62
     2
100
AcDbMText
 10
-22.98281840463415
 20
-86.34333109162247
 30
0.0
 40
2.0
 41
0.0
 71
     5
 72
     1
  1
General Information\P- Simplified representation\P- Document excluded from change process\P- Linear dimensions [mm]
  7
CONVERTER_11
 73
     1
 44
1.20048019207683
  0
MTEXT
  5
1F9
330
71
100
AcDbEntity
  8
1
 62
     7
100
AcDbMText
 10
143.5000008471624
 20
-24.09333109162049
 30
0.0
 40
3.5
 41
0.0
 71
     5
 72
     1
  1
C
  7
CONVERTER_11
 73
     1
 44
1.20048019207683
  0
MTEXT
  5
1FA
330
71
100
AcDbEntity
  8
1
 62
     7
100
AcDbMText
 10
143.5000008471624
 20
78.40666890837761
 30
0.0
 40
3.5
 41
0.0
 71
     5
 72
     1
  1
A
  7
CONVERTER_11
 73
     1
 44
1.20048019207683
  0
MTEXT
  5
1FB
330
71
100
AcDbEntity
  8
1
 62
     7
100
AcDbMText
 10
143.5000008471624
 20
25.90666890837952
 30
0.0
 40
3.5
 41
0.0
 71
     5
 72
     1
  1
B
  7
CONVERTER_11
 73
     1
 44
1.20048019207683
  0
MTEXT
  5
1FC
330
71
100
AcDbEntity
  8
1
 62
     7
100
AcDbMText
 10
143.5000008471624
 20
-76.59333109162239
 30
0.0
 40
3.5
 41
0.0
 71
     5
 72
     1
  1
D
  7
CONVERTER_11
 73
     1
 44
1.20048019207683
  0
MTEXT
  5
1FD
330
71
100
AcDbEntity
  8
1
 62
     7
100
AcDbMText
 10
-126.7499991528362
 20
-101.5933310916225
 30
0.0
 40
3.5
 41
0.0
 71
     5
 72
     1
  1
1
  7
CONVERTER_11
 73
     1
 44
1.20048019207683
  0
MTEXT
  5
1FE
330
71
100
AcDbEntity
  8
1
 62
     7
100
AcDbMText
 10
-77.49999915283661
 20
-101.5933310916225
 30
0.0
 40
3.5
 41
0.0
 71
     5
 72
     1
  1
2
  7
CONVERTER_11
 73
     1
 44
1.20048019207683
  0
MTEXT
  5
1FF
330
71
100
AcDbEntity
  8
1
 62
     7
100
AcDbMText
 10
-27.49999915283661
 20
-101.5933310916225
 30
0.0
 40
3.5
 41
0.0
 71
     5
 72
     1
  1
3
  7
CONVERTER_11
 73
     1
 44
1.20048019207683
  0
MTEXT
  5
200
330
71
100
AcDbEntity
  8
1
 62
     7
100
AcDbMText
 10
22.50000084716328
 20
-101.5933310916225
 30
0.0
 40
3.5
 41
0.0
 71
     5
 72
     1
  1
4
  7
CONVERTER_11
 73
     1
 44
1.20048019207683
  0
MTEXT
  5
201
330
71
100
AcDbEntity
  8
1
 62
     7
100
AcDbMText
 10
72.50000084716336
 20
-101.5933310916225
 30
0.0
 40
3.5
 41
0.0
 71
     5
 72
     1
  1
5
  7
CONVERTER_11
 73
     1
 44
1.20048019207683
  0
MTEXT
  5
202
330
71
100
AcDbEntity
  8
1
 62
     7
100
AcDbMText
 10
121.7500008471626
 20
-101.5933310916225
 30
0.0
 40
3.5
 41
0.0
 71
     5
 72
     1
  1
6
  7
CONVERTER_11
 73
     1
 44
1.20048019207683
  0
MTEXT
  5
203
330
71
100
AcDbEntity
  8
1
 62
     7
100
AcDbMText
 10
-148.4999991528357
 20
78.40666890837761
 30
0.0
 40
3.5
 41
0.0
 71
     5
 72
     1
  1
A
  7
CONVERTER_11
 73
     1
 44
1.20048019207683
  0
MTEXT
  5
204
330
71
100
AcDbEntity
  8
1
 62
     7
100
AcDbMText
 10
-148.4999991528357
 20
25.90666890837761
 30
0.0
 40
3.5
 41
0.0
 71
     5
 72
     1
  1
B
  7
CONVERTER_11
 73
     1
 44
1.20048019207683
  0
MTEXT
  5
205
330
71
100
AcDbEntity
  8
1
 62
     7
100
AcDbMText
 10
-148.4999991528357
 20
-24.09333109162239
 30
0.0
 40
3.5
 41
0.0
 71
     5
 72
     1
  1
C
  7
CONVERTER_11
 73
     1
 44
1.20048019207683
  0
MTEXT
  5
206
330
71
100
AcDbEntity
  8
1
 62
     7
100
AcDbMText
 10
-148.4999991528357
 20
-76.59333109162239
 30
0.0
 40
3.5
 41
0.0
 71
     5
 72
     1
  1
D
  7
CONVERTER_11
 73
     1
 44
1.20048019207683
  0
MTEXT
  5
207
330
71
100
AcDbEntity
  8
1
 62
     3
100
AcDbMText
 10
37.65519632041327
 20
-77.96833109162239
 30
0.0
 40
2.5
 41
0.0
 71
     5
 72
     1
  1
DIN A4
  7
CONVERTER_11
 73
     1
 44
1.20048019207683
  0
MTEXT
  5
208
330
71
100
AcDbEntity
  8
1
 62
     2
100
AcDbMText
 10
48.85519632041329
 20
-91.59333109162239
 30
0.0
 40
1.8
 41
0.0
 71
     1
 72
     1
  1
description
  7
CONVERTER_11
 73
     1
 44
1.20048019207683
  0
MTEXT
  5
209
330
71
100
AcDbEntity
  8
1
 62
     7
100
AcDbMText
 10
94.42759858378886
 20
-95.84333109162216
 30
0.0
 40
3.0
 41
0.0
 71
     5
 72
     1
  1
D-STS 4-TWIN/L
  7
CONVERTER_12
 73
     1
 44
1.20048019207683
  0
TEXT
  5
20A
330
71
100
AcDbEntity
  8
1
 62
     2
100
AcDbText
 10
35.89050513022687
 20
-97.8433310916225
 30
0.0
 40
1.8
  1
1
 41
0.9
  7
CONVERTER_11
100
AcDbText
  0
TEXT
  5
20B
330
71
100
AcDbEntity
  8
1
 62
     2
100
AcDbText
 10
21.10146129075537
 20
-97.8925797454244
 30
0.0
 40
1.8
  1
1
 41
0.9
  7
CONVERTER_11
100
AcDbText
  0
TEXT
  5
20C
330
71
100
AcDbEntity
  8
1
 62
     2
100
AcDbText
 10
12.45519632041336
 20
-97.85234830661406
 30
0.0
 40
1.8
  1
page
 41
0.9
  7
CONVERTER_11
100
AcDbText
  0
TEXT
  5
20D
330
71
100
AcDbEntity
  8
1
 62
     2
100
AcDbText
 10
30.65519632041318
 20
-97.852348306614
 30
0.0
 40
1.8
  1
of
 41
0.9
  7
CONVERTER_11
100
AcDbText
  0
MTEXT
  5
20E
330
71
100
AcDbEntity
  8
1
 62
     3
100
AcDbMText
 10
36.85817847202327
 20
87.6979770636764
 30
0.0
 40
1.8
 41
0.0
 71
     7
 72
     1
  3
Transfer or duplication of this document as well as the utilisation or\Pcommunication of its content are not permitted unless express consent\Pis granted. Violations give rise to claims for damages. All rights reserved\Pin case of patent, utility mo
  1
del or design patent registrations.
  7
CONVERTER_11
 73
     1
 44
0.99639855942377
  0
MTEXT
  5
20F
330
71
100
AcDbEntity
  8
1
 62
     3
100
AcDbMText
 10
-145.9949313667648
 20
87.6979770636764
 30
0.0
 40
1.8
 41
0.0
 71
     7
 72
     1
  3
Weitergabe sowie Vervielf\U+00e4ltigung dieses Dokuments, Verwertung und \PMitteilung seines Inhalts sind verboten, soweit nicht ausdr\U+00fccklich gestattet. \PZuwiderhandlungen verpflichten zu Schadenersatz. Alle Rechte f\U+00fcr den Fall\Pder Pat
  1
ent-, Gebrauchsmuster- oder Designeintragung vorbehalten.
  7
CONVERTER_11
 73
     1
 44
0.99639855942377
  0
HATCH
  5
210
330
71
100
AcDbEntity
  8
1
  6
Continuous
 62
     2
100
AcDbHatch
 10
0.0
 20
0.0
 30
0.0
210
0.0
220
0.0
230
1.0
  2
_USER
 70
     0
 71
     1
 91
        1
 92
        1
 93
       14
 72
     2
 10
23.69642559633607
 20
-90.2729263297008
 40
1.205656168390941
 50
164.9381082228764
 51
195.0618917770949
 73
     1
 72
     2
 10
24.11555343979887
 20
-90.16013596766598
 40
1.63969512393938
 50
195.0618917770896
 51
275.1581447696396
 73
     1
 72
     2
 10
23.82669734506297
 20
-86.96024538444439
 40
4.852596863498138
 50
275.1581447696249
 51
285.9799912583529
 73
     1
 72
     1
 10
25.16262526218077
 20
-91.6253276902452
 11
25.16262526218077
 21
-90.752810683442
 72
     2
 10
23.98457022015589
 20
-88.8624599642921
 40
2.227384008972736
 50
58.0690910500407
 51
71.55192388186732
 73
     0
 72
     2
 10
24.40273795381668
 20
-90.11600574032929
 40
0.9059297849849164
 50
71.55192388184133
 51
113.3722778881286
 73
     0
 72
     2
 10
24.24629792111466
 20
-90.47799775903928
 40
0.5115800601948065
 50
113.3722778881722
 51
151.4785267423046
 73
     0
 72
     2
 10
24.62365517919497
 20
-90.2729263297008
 40
0.9410597353332576
 50
151.4785267422943
 51
208.521473257733
 73
     0
 72
     2
 10
24.24629792111466
 20
-90.0678549003618
 40
0.5115800601948765
 50
208.5214732576954
 51
246.6277221118012
 73
     0
 72
     2
 10
24.40273795381668
 20
-90.42984691907239
 40
0.905929784985324
 50
246.6277221118714
 51
288.4480761181467
 73
     0
 72
     2
 10
23.98457022015589
 20
-91.68339269510898
 40
2.227384008973478
 50
288.4480761181327
 51
301.9309089499592
 73
     0
 72
     1
 10
25.16262526218077
 20
-89.79304197595908
 11
25.16262526218077
 21
-88.92052496915579
 72
     2
 10
23.82669734506297
 20
-93.58560727495669
 40
4.852596863498068
 50
74.02000874164739
 51
84.84185523037509
 73
     1
 72
     2
 10
24.11555343979887
 20
-90.3857166917357
 40
1.639695123940507
 50
84.84185523036223
 51
164.9381082228864
 73
     1
 97
       14
330
1E5
330
FE
330
1B4
330
1E4
330
1B5
330
1B6
330
1E3
330
1E2
330
1E1
330
FF
330
1B7
330
1B8
330
1B9
330
1BA
 75
     1
 76
     0
 52
45.0
 41
0.1
 77
     0
 78
     1
 53
45.0
 43
0.0
 44
0.0
 45
-0.0707106781186548
 46
0.0707106781186548
 79
     0
 98
        1
 10
0.0
 20
0.0
  0
HATCH
  5
211
330
71
100
AcDbEntity
  8
1
  6
Continuous
 62
     2
100
AcDbHatch
 10
0.0
 20
0.0
 30
0.0
210
0.0
220
0.0
230
1.0
  2
_USER
 70
     0
 71
     1
 91
        1
 92
        1
 93
       14
 72
     2
 10
23.69642559633607
 20
-90.2729263297008
 40
1.205656168390941
 50
164.9381082228764
 51
195.0618917770949
 73
     1
 72
     2
 10
24.11555343979887
 20
-90.16013596766598
 40
1.63969512393938
 50
195.0618917770896
 51
275.1581447696396
 73
     1
 72
     2
 10
23.82669734506297
 20
-86.96024538444439
 40
4.852596863498138
 50
275.1581447696249
 51
285.9799912583529
 73
     1
 72
     1
 10
25.16262526218077
 20
-91.6253276902452
 11
25.16262526218077
 21
-90.752810683442
 72
     2
 10
23.98457022015589
 20
-88.8624599642921
 40
2.227384008972736
 50
58.0690910500407
 51
71.55192388186732
 73
     0
 72
     2
 10
24.40273795381668
 20
-90.11600574032929
 40
0.9059297849849164
 50
71.55192388184133
 51
113.3722778881286
 73
     0
 72
     2
 10
24.24629792111466
 20
-90.47799775903928
 40
0.5115800601948065
 50
113.3722778881722
 51
151.4785267423046
 73
     0
 72
     2
 10
24.62365517919497
 20
-90.2729263297008
 40
0.9410597353332576
 50
151.4785267422943
 51
208.521473257733
 73
     0
 72
     2
 10
24.24629792111466
 20
-90.0678549003618
 40
0.5115800601948765
 50
208.5214732576954
 51
246.6277221118012
 73
     0
 72
     2
 10
24.40273795381668
 20
-90.42984691907239
 40
0.905929784985324
 50
246.6277221118714
 51
288.4480761181467
 73
     0
 72
     2
 10
23.98457022015589
 20
-91.68339269510898
 40
2.227384008973478
 50
288.4480761181327
 51
301.9309089499592
 73
     0
 72
     1
 10
25.16262526218077
 20
-89.79304197595908
 11
25.16262526218077
 21
-88.92052496915579
 72
     2
 10
23.82669734506297
 20
-93.58560727495669
 40
4.852596863498068
 50
74.02000874164739
 51
84.84185523037509
 73
     1
 72
     2
 10
24.11555343979887
 20
-90.3857166917357
 40
1.639695123940507
 50
84.84185523036223
 51
164.9381082228864
 73
     1
 97
       14
330
1E5
330
FE
330
1B4
330
1E4
330
1B5
330
1B6
330
1E3
330
1E2
330
1E1
330
FF
330
1B7
330
1B8
330
1B9
330
1BA
 75
     1
 76
     0
 52
45.0
 41
0.1
 77
     0
 78
     1
 53
45.0
 43
0.0
 44
0.0
 45
-0.0707106781186548
 46
0.0707106781186548
 79
     0
 98
        1
 10
0.0
 20
0.0
  0
HATCH
  5
212
330
71
100
AcDbEntity
  8
1
  6
Continuous
 62
     2
100
AcDbHatch
 10
0.0
 20
0.0
 30
0.0
210
0.0
220
0.0
230
1.0
  2
_USER
 70
     0
 71
     1
 91
        1
 92
        1
 93
       18
 72
     2
 10
40.21825491905179
 20
-90.3857166917357
 40
1.639695123940214
 50
90.0
 51
164.938108222895
 73
     1
 72
     2
 10
39.79912707559018
 20
-90.2729263297008
 40
1.205656168393009
 50
164.9381082229029
 51
195.0618917770958
 73
     1
 72
     2
 10
40.21825491905179
 20
-90.16013596766598
 40
1.639695123940455
 50
195.0618917771012
 51
275.1581447696762
 73
     1
 72
     2
 10
39.92939882431597
 20
-86.96024538444439
 40
4.852596863498825
 50
275.1581447696364
 51
285.9799912583387
 73
     1
 72
     1
 10
41.26532674143269
 20
-91.6253276902458
 11
41.26532674143269
 21
-90.75281068344248
 72
     2
 10
40.08727169940877
 20
-88.8624599642927
 40
2.22738400897275
 50
58.06909105006009
 51
71.55192388186622
 73
     0
 72
     2
 10
40.50543943307068
 20
-90.11600574032929
 40
0.9059297849852801
 50
71.55192388191786
 51
113.3722778881817
 73
     0
 72
     2
 10
40.34899940036758
 20
-90.47799775903928
 40
0.5115800601960279
 50
113.3722778881558
 51
151.4785267423138
 73
     0
 72
     2
 10
40.72635665844896
 20
-90.2729263297008
 40
0.9410597353348862
 50
151.4785267423303
 51
208.5214732576378
 73
     0
 72
     2
 10
40.34899940036758
 20
-90.0678549003618
 40
0.5115800601944166
 50
208.5214732575772
 51
250.662856780514
 73
     0
 72
     2
 10
40.49566939847128
 20
-90.48580988074468
 40
0.9545230068260935
 50
250.662856780568
 51
270.0
 73
     0
 72
     1
 10
40.49566939847128
 20
-89.53128687391859
 11
41.59930869803938
 21
-89.53128687391859
 72
     1
 10
41.59930869803938
 20
-89.53128687391859
 11
41.59930869803938
 21
-91.79983109160608
 72
     1
 10
41.59930869803938
 20
-91.79983109160608
 11
42.79210140020709
 21
-91.79983109160608
 72
     1
 10
42.79210140020709
 20
-91.79983109160608
 11
42.79210140020709
 21
-89.53128687391859
 72
     1
 10
42.79210140020709
 20
-89.53128687391859
 11
43.60320043768047
 21
-89.53128687391859
 72
     1
 10
43.60320043768047
 20
-89.53128687391859
 11
43.60320043768047
 21
-88.746021567795
 72
     1
 10
43.60320043768047
 20
-88.746021567795
 11
40.21825491905179
 21
-88.74602156779548
 97
       18
330
164
330
163
330
162
330
161
330
166
330
100
330
1DE
330
1BF
330
1DD
330
1C0
330
1DC
330
1DB
330
101
330
1DA
330
1D9
330
1C1
330
1C2
330
165
 75
     1
 76
     0
 52
45.0
 41
0.1
 77
     0
 78
     1
 53
45.0
 43
0.0
 44
0.0
 45
-0.0707106781186548
 46
0.0707106781186548
 79
     0
 98
        1
 10
0.0
 20
0.0
  0
HATCH
  5
213
330
71
100
AcDbEntity
  8
1
  6
Continuous
 62
     2
100
AcDbHatch
 10
0.0
 20
0.0
 30
0.0
210
0.0
220
0.0
230
1.0
  2
_USER
 70
     0
 71
     1
 91
        1
 92
        1
 93
       18
 72
     2
 10
40.21825491905179
 20
-90.3857166917357
 40
1.639695123940214
 50
90.0
 51
164.938108222895
 73
     1
 72
     2
 10
39.79912707559018
 20
-90.2729263297008
 40
1.205656168393009
 50
164.9381082229029
 51
195.0618917770958
 73
     1
 72
     2
 10
40.21825491905179
 20
-90.16013596766598
 40
1.639695123940455
 50
195.0618917771012
 51
275.1581447696762
 73
     1
 72
     2
 10
39.92939882431597
 20
-86.96024538444439
 40
4.852596863498825
 50
275.1581447696364
 51
285.9799912583387
 73
     1
 72
     1
 10
41.26532674143269
 20
-91.6253276902458
 11
41.26532674143269
 21
-90.75281068344248
 72
     2
 10
40.08727169940877
 20
-88.8624599642927
 40
2.22738400897275
 50
58.06909105006009
 51
71.55192388186622
 73
     0
 72
     2
 10
40.50543943307068
 20
-90.11600574032929
 40
0.9059297849852801
 50
71.55192388191786
 51
113.3722778881817
 73
     0
 72
     2
 10
40.34899940036758
 20
-90.47799775903928
 40
0.5115800601960279
 50
113.3722778881558
 51
151.4785267423138
 73
     0
 72
     2
 10
40.72635665844896
 20
-90.2729263297008
 40
0.9410597353348862
 50
151.4785267423303
 51
208.5214732576378
 73
     0
 72
     2
 10
40.34899940036758
 20
-90.0678549003618
 40
0.5115800601944166
 50
208.5214732575772
 51
250.662856780514
 73
     0
 72
     2
 10
40.49566939847128
 20
-90.48580988074468
 40
0.9545230068260935
 50
250.662856780568
 51
270.0
 73
     0
 72
     1
 10
40.49566939847128
 20
-89.53128687391859
 11
41.59930869803938
 21
-89.53128687391859
 72
     1
 10
41.59930869803938
 20
-89.53128687391859
 11
41.59930869803938
 21
-91.79983109160608
 72
     1
 10
41.59930869803938
 20
-91.79983109160608
 11
42.79210140020709
 21
-91.79983109160608
 72
     1
 10
42.79210140020709
 20
-91.79983109160608
 11
42.79210140020709
 21
-89.53128687391859
 72
     1
 10
42.79210140020709
 20
-89.53128687391859
 11
43.60320043768047
 21
-89.53128687391859
 72
     1
 10
43.60320043768047
 20
-89.53128687391859
 11
43.60320043768047
 21
-88.746021567795
 72
     1
 10
43.60320043768047
 20
-88.746021567795
 11
40.21825491905179
 21
-88.74602156779548
 97
       18
330
164
330
163
330
162
330
161
330
166
330
100
330
1DE
330
1BF
330
1DD
330
1C0
330
1DC
330
1DB
330
101
330
1DA
330
1D9
330
1C1
330
1C2
330
165
 75
     1
 76
     0
 52
45.0
 41
0.1
 77
     0
 78
     1
 53
45.0
 43
0.0
 44
0.0
 45
-0.0707106781186548
 46
0.0707106781186548
 79
     0
 98
        1
 10
0.0
 20
0.0
  0
HATCH
  5
214
330
71
100
AcDbEntity
  8
1
  6
Continuous
 62
     2
100
AcDbHatch
 10
0.0
 20
0.0
 30
0.0
210
0.0
220
0.0
230
1.0
  2
_USER
 70
     0
 71
     1
 91
        4
 92
        1
 93
        8
 72
     2
 10
16.11609582235877
 20
-85.81107570702258
 40
0.4242446153837989
 50
90.0
 51
180.0
 73
     1
 72
     1
 10
15.69185120697597
 20
-85.81107570702258
 11
15.69185120697597
 21
-91.3755864762228
 72
     2
 10
16.11609582235877
 20
-91.3755864762228
 40
0.4242446153827988
 50
180.0
 51
270.0
 73
     1
 72
     1
 10
16.11609582235877
 20
-91.79983109160608
 11
21.58940791307558
 21
-91.79983109160608
 72
     2
 10
21.58940791307558
 20
-91.3755864762228
 40
0.4242446153832873
 50
270.0
 51
360.0
 73
     1
 72
     1
 10
22.01365252845946
 20
-91.3755864762228
 11
22.01365252845946
 21
-85.81107570702258
 72
     2
 10
21.58940791307558
 20
-85.81107570702258
 40
0.4242446153838806
 50
0.0
 51
90.0
 73
     1
 72
     1
 10
21.58940791307558
 20
-85.38683109163878
 11
16.11609582235877
 21
-85.38683109163878
 97
        8
330
1D2
330
12F
330
1D1
330
130
330
1C8
330
12D
330
1D3
330
12E
 92
       16
 93
        1
 72
     2
 10
18.73568147287628
 20
-88.12995793537809
 40
0.470978932778511
 50
0.0
 51
360.0
 73
     1
 97
        1
330
1E6
 92
       16
 93
        8
 72
     2
 10
18.75949648754909
 20
-88.12995793537809
 40
0.911848150144459
 50
295.3740086781764
 51
424.6259913218075
 73
     1
 72
     2
 10
19.28553918563696
 20
-87.02081633541027
 40
0.3157169230767884
 50
115.3740086783507
 51
180.0
 73
     0
 72
     1
 10
18.96982226256017
 20
-87.02081633541027
 11
18.96982226256017
 21
-86.41528104690349
 72
     2
 10
19.28553918563696
 20
-86.41528104690349
 40
0.315716923076071
 50
180.0
 51
269.8110329574554
 73
     0
 72
     2
 10
19.29115532094698
 20
-88.11811599447259
 40
2.018561131933266
 50
269.8110329575861
 51
450.1889670424139
 73
     0
 72
     2
 10
19.28553918563696
 20
-89.82095094204158
 40
0.3157169230767884
 50
90.18896704254458
 51
180.0
 73
     0
 72
     1
 10
18.96982226256017
 20
-89.82095094204158
 11
18.96982226256017
 21
-89.2390995353465
 72
     2
 10
19.28553918563696
 20
-89.2390995353465
 40
0.3157169230765298
 50
180.0
 51
244.6259913216493
 73
     0
 97
        8
330
1E0
330
1BC
330
168
330
1DF
330
1BD
330
1BE
330
167
330
1BB
 92
       16
 93
       12
 72
     1
 10
16.70999049910526
 20
-91.08727553604919
 11
18.18582376011489
 21
-91.08727553604919
 72
     2
 10
18.18582376011489
 20
-90.77155861297248
 40
0.3157169230767067
 50
270.0
 51
360.0
 73
     1
 72
     1
 10
18.50154068319148
 20
-90.77155861297248
 11
18.50154068319148
 21
-89.24078768144088
 72
     2
 10
18.18582376011489
 20
-89.24078768144088
 40
0.3157169230765895
 50
0.0
 51
64.80558935146145
 73
     1
 72
     2
 10
18.70840820768987
 20
-88.12995793537809
 40
0.9118975235576161
 50
115.1944106485124
 51
244.8055893514716
 73
     0
 72
     2
 10
18.18582376011489
 20
-87.0191281893159
 40
0.3157169230761172
 50
295.1944106485386
 51
360.0
 73
     1
 72
     1
 10
18.50154068319148
 20
-87.0191281893159
 11
18.50154068319148
 21
-86.41510357025538
 72
     2
 10
18.18582376011489
 20
-86.41510357025538
 40
0.3157169230765895
 50
0.0
 51
90.0
 73
     1
 72
     1
 10
18.18582376011489
 20
-86.09938664717919
 11
16.70999049910526
 21
-86.09938664717919
 72
     2
 10
16.70999049910526
 20
-86.41510357025538
 40
0.3157169230761951
 50
90.0
 51
180.0
 73
     1
 72
     1
 10
16.39427357602958
 20
-86.41510357025538
 11
16.39427357602958
 21
-90.77155861297248
 72
     2
 10
16.70999049910526
 20
-90.77155861297248
 40
0.31571692307568
 50
180.0
 51
270.0
 73
     1
 97
       12
330
134
330
1C5
330
133
330
1D6
330
132
330
1D5
330
1C6
330
1C7
330
131
330
1D4
330
12C
330
1D7
 75
     1
 76
     0
 52
45.0
 41
0.1
 77
     0
 78
     1
 53
45.0
 43
0.0
 44
0.0
 45
-0.0707106781186548
 46
0.0707106781186548
 79
     0
 98
        1
 10
0.0
 20
0.0
  0
HATCH
  5
215
330
71
100
AcDbEntity
  8
1
  6
Continuous
 62
     2
100
AcDbHatch
 10
0.0
 20
0.0
 30
0.0
210
0.0
220
0.0
230
1.0
  2
_USER
 70
     0
 71
     1
 91
        4
 92
        1
 93
        8
 72
     2
 10
16.11609582235877
 20
-85.81107570702258
 40
0.4242446153837989
 50
90.0
 51
180.0
 73
     1
 72
     1
 10
15.69185120697597
 20
-85.81107570702258
 11
15.69185120697597
 21
-91.3755864762228
 72
     2
 10
16.11609582235877
 20
-91.3755864762228
 40
0.4242446153827988
 50
180.0
 51
270.0
 73
     1
 72
     1
 10
16.11609582235877
 20
-91.79983109160608
 11
21.58940791307558
 21
-91.79983109160608
 72
     2
 10
21.58940791307558
 20
-91.3755864762228
 40
0.4242446153832873
 50
270.0
 51
360.0
 73
     1
 72
     1
 10
22.01365252845946
 20
-91.3755864762228
 11
22.01365252845946
 21
-85.81107570702258
 72
     2
 10
21.58940791307558
 20
-85.81107570702258
 40
0.4242446153838806
 50
0.0
 51
90.0
 73
     1
 72
     1
 10
21.58940791307558
 20
-85.38683109163878
 11
16.11609582235877
 21
-85.38683109163878
 97
        8
330
1D2
330
12F
330
1D1
330
130
330
1C8
330
12D
330
1D3
330
12E
 92
       16
 93
        1
 72
     2
 10
18.73568147287628
 20
-88.12995793537809
 40
0.470978932778511
 50
0.0
 51
360.0
 73
     1
 97
        1
330
1E6
 92
       16
 93
        8
 72
     2
 10
18.75949648754909
 20
-88.12995793537809
 40
0.911848150144459
 50
295.3740086781764
 51
424.6259913218075
 73
     1
 72
     2
 10
19.28553918563696
 20
-87.02081633541027
 40
0.3157169230767884
 50
115.3740086783507
 51
180.0
 73
     0
 72
     1
 10
18.96982226256017
 20
-87.02081633541027
 11
18.96982226256017
 21
-86.41528104690349
 72
     2
 10
19.28553918563696
 20
-86.41528104690349
 40
0.315716923076071
 50
180.0
 51
269.8110329574554
 73
     0
 72
     2
 10
19.29115532094698
 20
-88.11811599447259
 40
2.018561131933266
 50
269.8110329575861
 51
450.1889670424139
 73
     0
 72
     2
 10
19.28553918563696
 20
-89.82095094204158
 40
0.3157169230767884
 50
90.18896704254458
 51
180.0
 73
     0
 72
     1
 10
18.96982226256017
 20
-89.82095094204158
 11
18.96982226256017
 21
-89.2390995353465
 72
     2
 10
19.28553918563696
 20
-89.2390995353465
 40
0.3157169230765298
 50
180.0
 51
244.6259913216493
 73
     0
 97
        8
330
1E0
330
1BC
330
168
330
1DF
330
1BD
330
1BE
330
167
330
1BB
 92
       16
 93
       12
 72
     1
 10
16.70999049910526
 20
-91.08727553604919
 11
18.18582376011489
 21
-91.08727553604919
 72
     2
 10
18.18582376011489
 20
-90.77155861297248
 40
0.3157169230767067
 50
270.0
 51
360.0
 73
     1
 72
     1
 10
18.50154068319148
 20
-90.77155861297248
 11
18.50154068319148
 21
-89.24078768144088
 72
     2
 10
18.18582376011489
 20
-89.24078768144088
 40
0.3157169230765895
 50
0.0
 51
64.80558935146145
 73
     1
 72
     2
 10
18.70840820768987
 20
-88.12995793537809
 40
0.9118975235576161
 50
115.1944106485124
 51
244.8055893514716
 73
     0
 72
     2
 10
18.18582376011489
 20
-87.0191281893159
 40
0.3157169230761172
 50
295.1944106485386
 51
360.0
 73
     1
 72
     1
 10
18.50154068319148
 20
-87.0191281893159
 11
18.50154068319148
 21
-86.41510357025538
 72
     2
 10
18.18582376011489
 20
-86.41510357025538
 40
0.3157169230765895
 50
0.0
 51
90.0
 73
     1
 72
     1
 10
18.18582376011489
 20
-86.09938664717919
 11
16.70999049910526
 21
-86.09938664717919
 72
     2
 10
16.70999049910526
 20
-86.41510357025538
 40
0.3157169230761951
 50
90.0
 51
180.0
 73
     1
 72
     1
 10
16.39427357602958
 20
-86.41510357025538
 11
16.39427357602958
 21
-90.77155861297248
 72
     2
 10
16.70999049910526
 20
-90.77155861297248
 40
0.31571692307568
 50
180.0
 51
270.0
 73
     1
 97
       12
330
134
330
1C5
330
133
330
1D6
330
132
330
1D5
330
1C6
330
1C7
330
131
330
1D4
330
12C
330
1D7
 75
     1
 76
     0
 52
45.0
 41
0.1
 77
     0
 78
     1
 53
45.0
 43
0.0
 44
0.0
 45
-0.0707106781186548
 46
0.0707106781186548
 79
     0
 98
        1
 10
0.0
 20
0.0
  0
HATCH
  5
216
330
71
100
AcDbEntity
  8
1
  6
Continuous
 62
     2
100
AcDbHatch
 10
0.0
 20
0.0
 30
0.0
210
0.0
220
0.0
230
1.0
  2
_USER
 70
     0
 71
     1
 91
        2
 92
        1
 93
       12
 72
     2
 10
30.79125982634807
 20
-86.91373585352648
 40
1.526904761905882
 50
90.0
 51
270.0
 73
     1
 72
     1
 10
30.79125982634807
 20
-88.44064061543179
 11
33.94157955012906
 21
-88.44064061543179
 72
     1
 10
33.94157955012906
 20
-88.44064061543179
 11
33.94157955012906
 21
-87.74262700998929
 72
     1
 10
33.94157955012906
 20
-87.74262700998929
 11
32.60565172370139
 21
-87.74262700998929
 72
     1
 10
32.60565172370139
 20
-87.74262700998929
 11
32.60565172370139
 21
-87.26274265624758
 72
     1
 10
32.60565172370139
 20
-87.26274265624758
 11
33.94157955012906
 21
-87.26274265624758
 72
     1
 10
33.94157955012906
 20
-87.26274265624758
 11
33.94157955012906
 21
-86.56472905080528
 72
     1
 10
33.94157955012906
 20
-86.56472905080528
 11
32.60565172370139
 21
-86.56472905080528
 72
     1
 10
32.60565172370139
 20
-86.56472905080528
 11
32.60565172370139
 21
-86.08484469706357
 72
     1
 10
32.60565172370139
 20
-86.08484469706357
 11
33.94157955012906
 21
-86.08484469706357
 72
     1
 10
33.94157955012906
 20
-86.08484469706357
 11
33.94157955012906
 21
-85.38683109162059
 72
     1
 10
33.94157955012906
 20
-85.38683109162059
 11
30.79125982634807
 21
-85.38683109162059
 97
       12
330
123
330
11D
330
144
330
143
330
142
330
141
330
11E
330
11F
330
120
330
121
330
1C3
330
122
 92
       16
 93
        4
 72
     2
 10
31.20727187285957
 20
-86.91373585352648
 40
0.7717997786796807
 50
141.8795802028409
 51
218.1204197971558
 73
     1
 72
     2
 10
31.00753183651327
 20
-87.0704670316469
 40
0.5179085730134427
 50
218.1204197971506
 51
321.8795802028564
 73
     1
 72
     2
 10
30.80779180016708
 20
-86.91373585352648
 40
0.7717997786796373
 50
321.8795802028437
 51
398.1204197971596
 73
     1
 72
     2
 10
31.00753183651327
 20
-86.757004675406
 40
0.5179085730135238
 50
38.12041979714358
 51
141.8795802028494
 73
     1
 97
        4
330
1D0
330
1CF
330
1CA
330
1C9
 75
     1
 76
     0
 52
45.0
 41
0.1
 77
     0
 78
     1
 53
45.0
 43
0.0
 44
0.0
 45
-0.0707106781186548
 46
0.0707106781186548
 79
     0
 98
        1
 10
0.0
 20
0.0
  0
HATCH
  5
217
330
71
100
AcDbEntity
  8
1
  6
Continuous
 62
     2
100
AcDbHatch
 10
0.0
 20
0.0
 30
0.0
210
0.0
220
0.0
230
1.0
  2
_USER
 70
     0
 71
     1
 91
        2
 92
        1
 93
       12
 72
     2
 10
30.79125982634807
 20
-86.91373585352648
 40
1.526904761905882
 50
90.0
 51
270.0
 73
     1
 72
     1
 10
30.79125982634807
 20
-88.44064061543179
 11
33.94157955012906
 21
-88.44064061543179
 72
     1
 10
33.94157955012906
 20
-88.44064061543179
 11
33.94157955012906
 21
-87.74262700998929
 72
     1
 10
33.94157955012906
 20
-87.74262700998929
 11
32.60565172370139
 21
-87.74262700998929
 72
     1
 10
32.60565172370139
 20
-87.74262700998929
 11
32.60565172370139
 21
-87.26274265624758
 72
     1
 10
32.60565172370139
 20
-87.26274265624758
 11
33.94157955012906
 21
-87.26274265624758
 72
     1
 10
33.94157955012906
 20
-87.26274265624758
 11
33.94157955012906
 21
-86.56472905080528
 72
     1
 10
33.94157955012906
 20
-86.56472905080528
 11
32.60565172370139
 21
-86.56472905080528
 72
     1
 10
32.60565172370139
 20
-86.56472905080528
 11
32.60565172370139
 21
-86.08484469706357
 72
     1
 10
32.60565172370139
 20
-86.08484469706357
 11
33.94157955012906
 21
-86.08484469706357
 72
     1
 10
33.94157955012906
 20
-86.08484469706357
 11
33.94157955012906
 21
-85.38683109162059
 72
     1
 10
33.94157955012906
 20
-85.38683109162059
 11
30.79125982634807
 21
-85.38683109162059
 97
       12
330
123
330
11D
330
144
330
143
330
142
330
141
330
11E
330
11F
330
120
330
121
330
1C3
330
122
 92
       16
 93
        4
 72
     2
 10
31.20727187285957
 20
-86.91373585352648
 40
0.7717997786796807
 50
141.8795802028409
 51
218.1204197971558
 73
     1
 72
     2
 10
31.00753183651327
 20
-87.0704670316469
 40
0.5179085730134427
 50
218.1204197971506
 51
321.8795802028564
 73
     1
 72
     2
 10
30.80779180016708
 20
-86.91373585352648
 40
0.7717997786796373
 50
321.8795802028437
 51
398.1204197971596
 73
     1
 72
     2
 10
31.00753183651327
 20
-86.757004675406
 40
0.5179085730135238
 50
38.12041979714358
 51
141.8795802028494
 73
     1
 97
        4
330
1D0
330
1CF
330
1CA
330
1C9
 75
     1
 76
     0
 52
45.0
 41
0.1
 77
     0
 78
     1
 53
45.0
 43
0.0
 44
0.0
 45
-0.0707106781186548
 46
0.0707106781186548
 79
     0
 98
        1
 10
0.0
 20
0.0
  0
HATCH
  5
218
330
71
100
AcDbEntity
  8
1
  6
Continuous
 62
     2
100
AcDbHatch
 10
0.0
 20
0.0
 30
0.0
210
0.0
220
0.0
230
1.0
  2
_USER
 70
     0
 71
     1
 91
        2
 92
        1
 93
        4
 72
     2
 10
26.76564446388647
 20
-90.2729263297008
 40
1.458034083651487
 50
117.5481481756622
 51
242.4518518243378
 73
     1
 72
     2
 10
27.04658435571977
 20
-89.73435131939749
 40
2.065479772208505
 50
242.4518518243404
 51
297.5481481756871
 73
     1
 72
     2
 10
27.32752424755307
 20
-90.2729263297008
 40
1.458034083652003
 50
297.548148175701
 51
422.451851824299
 73
     1
 72
     2
 10
27.04658435571977
 20
-90.81150134000359
 40
2.065479772208569
 50
62.45185182430628
 51
117.5481481756662
 73
     1
 97
        4
330
1CE
330
1CB
330
1CD
330
1CC
 92
       16
 93
        4
 72
     2
 10
27.04658435571977
 20
-90.11619515158029
 40
0.5179085730133026
 50
38.12041979714679
 51
141.8795802028585
 73
     1
 72
     2
 10
27.24632439206587
 20
-90.2729263297008
 40
0.7717997786794605
 50
141.8795802028361
 51
218.1204197971688
 73
     1
 72
     2
 10
27.04658435571977
 20
-90.42965750782079
 40
0.5179085730137326
 50
218.1204197971934
 51
321.8795802028013
 73
     1
 72
     2
 10
26.84684431937336
 20
-90.2729263297008
 40
0.7717997786796947
 50
321.8795802028417
 51
398.1204197971533
 73
     1
 97
        4
330
1B1
330
1B2
330
1B3
330
1B0
 75
     1
 76
     0
 52
45.0
 41
0.1
 77
     0
 78
     1
 53
45.0
 43
0.0
 44
0.0
 45
-0.0707106781186548
 46
0.0707106781186548
 79
     0
 98
        1
 10
0.0
 20
0.0
  0
HATCH
  5
219
330
71
100
AcDbEntity
  8
1
  6
Continuous
 62
     2
100
AcDbHatch
 10
0.0
 20
0.0
 30
0.0
210
0.0
220
0.0
230
1.0
  2
_USER
 70
     0
 71
     1
 91
        2
 92
        1
 93
        4
 72
     2
 10
26.76564446388647
 20
-90.2729263297008
 40
1.458034083651487
 50
117.5481481756622
 51
242.4518518243378
 73
     1
 72
     2
 10
27.04658435571977
 20
-89.73435131939749
 40
2.065479772208505
 50
242.4518518243404
 51
297.5481481756871
 73
     1
 72
     2
 10
27.32752424755307
 20
-90.2729263297008
 40
1.458034083652003
 50
297.548148175701
 51
422.451851824299
 73
     1
 72
     2
 10
27.04658435571977
 20
-90.81150134000359
 40
2.065479772208569
 50
62.45185182430628
 51
117.5481481756662
 73
     1
 97
        4
330
1CE
330
1CB
330
1CD
330
1CC
 92
       16
 93
        4
 72
     2
 10
27.04658435571977
 20
-90.11619515158029
 40
0.5179085730133026
 50
38.12041979714679
 51
141.8795802028585
 73
     1
 72
     2
 10
27.24632439206587
 20
-90.2729263297008
 40
0.7717997786794605
 50
141.8795802028361
 51
218.1204197971688
 73
     1
 72
     2
 10
27.04658435571977
 20
-90.42965750782079
 40
0.5179085730137326
 50
218.1204197971934
 51
321.8795802028013
 73
     1
 72
     2
 10
26.84684431937336
 20
-90.2729263297008
 40
0.7717997786796947
 50
321.8795802028417
 51
398.1204197971533
 73
     1
 97
        4
330
1B1
330
1B2
330
1B3
330
1B0
 75
     1
 76
     0
 52
45.0
 41
0.1
 77
     0
 78
     1
 53
45.0
 43
0.0
 44
0.0
 45
-0.0707106781186548
 46
0.0707106781186548
 79
     0
 98
        1
 10
0.0
 20
0.0
  0
HATCH
  5
21A
330
71
100
AcDbEntity
  8
1
  6
Continuous
 62
     2
100
AcDbHatch
 10
0.0
 20
0.0
 30
0.0
210
0.0
220
0.0
230
1.0
  2
_USER
 70
     0
 71
     1
 91
        2
 92
        1
 93
        6
 72
     1
 10
22.49076960932626
 20
-85.38683109162059
 11
22.49076960932626
 21
-88.44064061543179
 72
     1
 10
22.49076960932626
 20
-88.44064061543179
 11
23.73127401958038
 21
-88.44064061543179
 72
     1
 10
23.73127401958038
 20
-88.44064061543179
 11
23.73127401958038
 21
-87.49756237428798
 72
     1
 10
23.73127401958038
 20
-87.49756237428798
 11
24.49004160736067
 21
-87.49756237428798
 72
     2
 10
24.49004160736067
 20
-86.44219673295427
 40
1.055365641333708
 50
270.0
 51
450.0
 73
     1
 72
     1
 10
24.49004160736067
 20
-85.38683109162059
 11
22.49076960932626
 21
-85.38683109162059
 97
        6
330
1D8
330
135
330
12B
330
12A
330
137
330
136
 92
       16
 93
        4
 72
     1
 10
24.04856908112228
 20
-86.04993693706069
 11
23.73127401958038
 21
-86.04993693706069
 72
     1
 10
23.73127401958038
 20
-86.04993693706069
 11
23.73127401958038
 21
-86.7556645864029
 72
     1
 10
23.73127401958038
 20
-86.7556645864029
 11
24.04856908112228
 21
-86.7556645864029
 72
     2
 10
24.04856908112228
 20
-86.40280076173178
 40
0.3528638246711182
 50
270.0
 51
450.0
 73
     1
 97
        4
330
138
330
129
330
139
330
1C4
 75
     1
 76
     0
 52
45.0
 41
0.1
 77
     0
 78
     1
 53
45.0
 43
0.0
 44
0.0
 45
-0.0707106781186548
 46
0.0707106781186548
 79
     0
 98
        1
 10
0.0
 20
0.0
  0
HATCH
  5
21B
330
71
100
AcDbEntity
  8
1
  6
Continuous
 62
     2
100
AcDbHatch
 10
0.0
 20
0.0
 30
0.0
210
0.0
220
0.0
230
1.0
  2
_USER
 70
     0
 71
     1
 91
        2
 92
        1
 93
        6
 72
     1
 10
22.49076960932626
 20
-85.38683109162059
 11
22.49076960932626
 21
-88.44064061543179
 72
     1
 10
22.49076960932626
 20
-88.44064061543179
 11
23.73127401958038
 21
-88.44064061543179
 72
     1
 10
23.73127401958038
 20
-88.44064061543179
 11
23.73127401958038
 21
-87.49756237428798
 72
     1
 10
23.73127401958038
 20
-87.49756237428798
 11
24.49004160736067
 21
-87.49756237428798
 72
     2
 10
24.49004160736067
 20
-86.44219673295427
 40
1.055365641333708
 50
270.0
 51
450.0
 73
     1
 72
     1
 10
24.49004160736067
 20
-85.38683109162059
 11
22.49076960932626
 21
-85.38683109162059
 97
        6
330
1D8
330
135
330
12B
330
12A
330
137
330
136
 92
       16
 93
        4
 72
     1
 10
24.04856908112228
 20
-86.04993693706069
 11
23.73127401958038
 21
-86.04993693706069
 72
     1
 10
23.73127401958038
 20
-86.04993693706069
 11
23.73127401958038
 21
-86.7556645864029
 72
     1
 10
23.73127401958038
 20
-86.7556645864029
 11
24.04856908112228
 21
-86.7556645864029
 72
     2
 10
24.04856908112228
 20
-86.40280076173178
 40
0.3528638246711182
 50
270.0
 51
450.0
 73
     1
 97
        4
330
138
330
129
330
139
330
1C4
 75
     1
 76
     0
 52
45.0
 41
0.1
 77
     0
 78
     1
 53
45.0
 43
0.0
 44
0.0
 45
-0.0707106781186548
 46
0.0707106781186548
 79
     0
 98
        1
 10
0.0
 20
0.0
  0
HATCH
  5
21C
330
71
100
AcDbEntity
  8
1
  6
Continuous
 62
     2
100
AcDbHatch
 10
0.0
 20
0.0
 30
0.0
210
0.0
220
0.0
230
1.0
  2
_USER
 70
     0
 71
     1
 91
        1
 92
        1
 93
       12
 72
     1
 10
42.10505280375946
 20
-85.38683109162059
 11
43.50777702150668
 21
-85.38683109162059
 72
     1
 10
43.50777702150668
 20
-85.38683109162059
 11
42.20524739074017
 21
-86.8597816216568
 72
     1
 10
42.20524739074017
 20
-86.8597816216568
 11
43.60320043768047
 21
-88.44064061543179
 72
     1
 10
43.60320043768047
 20
-88.44064061543179
 11
42.20047621993217
 21
-88.44064061543179
 72
     1
 10
42.20047621993217
 20
-88.44064061543179
 11
41.50388528186667
 21
-87.65290883013807
 72
     1
 10
41.50388528186667
 20
-87.65290883013807
 11
40.80729434380098
 21
-88.44064061543179
 72
     1
 10
40.80729434380098
 20
-88.44064061543179
 11
39.40457012605276
 21
-88.44064061543179
 72
     1
 10
39.40457012605276
 20
-88.44064061543179
 11
40.80252317299306
 21
-86.8597816216568
 72
     1
 10
40.80252317299306
 20
-86.8597816216568
 11
39.49999354222558
 21
-85.38683109162059
 72
     1
 10
39.49999354222558
 20
-85.38683109162059
 11
40.90271775997488
 21
-85.38683109162059
 72
     1
 10
40.90271775997488
 20
-85.38683109162059
 11
41.50388528186667
 21
-86.06665441317608
 72
     1
 10
41.50388528186667
 20
-86.06665441317608
 11
42.10505280375946
 21
-85.38683109162059
 97
       12
330
104
330
15D
330
15C
330
15B
330
15A
330
105
330
106
330
102
330
103
330
160
330
15F
330
15E
 75
     1
 76
     0
 52
45.0
 41
0.1
 77
     0
 78
     1
 53
45.0
 43
0.0
 44
0.0
 45
-0.0707106781186548
 46
0.0707106781186548
 79
     0
 98
        1
 10
0.0
 20
0.0
  0
HATCH
  5
21D
330
71
100
AcDbEntity
  8
1
  6
Continuous
 62
     2
100
AcDbHatch
 10
0.0
 20
0.0
 30
0.0
210
0.0
220
0.0
230
1.0
  2
_USER
 70
     0
 71
     1
 91
        1
 92
        1
 93
       12
 72
     1
 10
42.10505280375946
 20
-85.38683109162059
 11
43.50777702150668
 21
-85.38683109162059
 72
     1
 10
43.50777702150668
 20
-85.38683109162059
 11
42.20524739074017
 21
-86.8597816216568
 72
     1
 10
42.20524739074017
 20
-86.8597816216568
 11
43.60320043768047
 21
-88.44064061543179
 72
     1
 10
43.60320043768047
 20
-88.44064061543179
 11
42.20047621993217
 21
-88.44064061543179
 72
     1
 10
42.20047621993217
 20
-88.44064061543179
 11
41.50388528186667
 21
-87.65290883013807
 72
     1
 10
41.50388528186667
 20
-87.65290883013807
 11
40.80729434380098
 21
-88.44064061543179
 72
     1
 10
40.80729434380098
 20
-88.44064061543179
 11
39.40457012605276
 21
-88.44064061543179
 72
     1
 10
39.40457012605276
 20
-88.44064061543179
 11
40.80252317299306
 21
-86.8597816216568
 72
     1
 10
40.80252317299306
 20
-86.8597816216568
 11
39.49999354222558
 21
-85.38683109162059
 72
     1
 10
39.49999354222558
 20
-85.38683109162059
 11
40.90271775997488
 21
-85.38683109162059
 72
     1
 10
40.90271775997488
 20
-85.38683109162059
 11
41.50388528186667
 21
-86.06665441317608
 72
     1
 10
41.50388528186667
 20
-86.06665441317608
 11
42.10505280375946
 21
-85.38683109162059
 97
       12
330
104
330
15D
330
15C
330
15B
330
15A
330
105
330
106
330
102
330
103
330
160
330
15F
330
15E
 75
     1
 76
     0
 52
45.0
 41
0.1
 77
     0
 78
     1
 53
45.0
 43
0.0
 44
0.0
 45
-0.0707106781186548
 46
0.0707106781186548
 79
     0
 98
        1
 10
0.0
 20
0.0
  0
HATCH
  5
21E
330
71
100
AcDbEntity
  8
1
  6
Continuous
 62
     2
100
AcDbHatch
 10
0.0
 20
0.0
 30
0.0
210
0.0
220
0.0
230
1.0
  2
_USER
 70
     0
 71
     1
 91
        1
 92
        1
 93
        4
 72
     1
 10
39.28529085583588
 20
-85.38683109162059
 11
39.28529085583588
 21
-88.44064061543179
 72
     1
 10
39.28529085583588
 20
-88.44064061543179
 11
38.04478644558299
 21
-88.44064061543179
 72
     1
 10
38.04478644558299
 20
-88.44064061543179
 11
38.04478644558299
 21
-85.38683109162059
 72
     1
 10
38.04478644558299
 20
-85.38683109162059
 11
39.28529085583588
 21
-85.38683109162059
 97
        4
330
158
330
107
330
157
330
159
 75
     1
 76
     0
 52
45.0
 41
0.1
 77
     0
 78
     1
 53
45.0
 43
0.0
 44
0.0
 45
-0.0707106781186548
 46
0.0707106781186548
 79
     0
 98
        1
 10
0.0
 20
0.0
  0
HATCH
  5
21F
330
71
100
AcDbEntity
  8
1
  6
Continuous
 62
     2
100
AcDbHatch
 10
0.0
 20
0.0
 30
0.0
210
0.0
220
0.0
230
1.0
  2
_USER
 70
     0
 71
     1
 91
        1
 92
        1
 93
        4
 72
     1
 10
39.28529085583588
 20
-85.38683109162059
 11
39.28529085583588
 21
-88.44064061543179
 72
     1
 10
39.28529085583588
 20
-88.44064061543179
 11
38.04478644558299
 21
-88.44064061543179
 72
     1
 10
38.04478644558299
 20
-88.44064061543179
 11
38.04478644558299
 21
-85.38683109162059
 72
     1
 10
38.04478644558299
 20
-85.38683109162059
 11
39.28529085583588
 21
-85.38683109162059
 97
        4
330
158
330
107
330
157
330
159
 75
     1
 76
     0
 52
45.0
 41
0.1
 77
     0
 78
     1
 53
45.0
 43
0.0
 44
0.0
 45
-0.0707106781186548
 46
0.0707106781186548
 79
     0
 98
        1
 10
0.0
 20
0.0
  0
HATCH
  5
220
330
71
100
AcDbEntity
  8
1
  6
Continuous
 62
     2
100
AcDbHatch
 10
0.0
 20
0.0
 30
0.0
210
0.0
220
0.0
230
1.0
  2
_USER
 70
     0
 71
     1
 91
        2
 92
        1
 93
        8
 72
     1
 10
38.89484685230389
 20
-91.79983109160608
 11
37.65434244204997
 21
-91.79983109160608
 72
     1
 10
37.65434244204997
 20
-91.79983109160608
 11
37.44286238857418
 21
-91.2588705473882
 72
     1
 10
37.44286238857418
 20
-91.2588705473882
 11
36.31042081190037
 21
-91.2588705473882
 72
     1
 10
36.31042081190037
 20
-91.2588705473882
 11
36.09894075842456
 21
-91.79983109160608
 72
     1
 10
36.09894075842456
 20
-91.79983109160608
 11
34.85843634817158
 21
-91.79983109160608
 72
     1
 10
34.85843634817158
 20
-91.79983109160608
 11
36.25638939511089
 21
-88.746021567795
 72
     1
 10
36.25638939511089
 20
-88.746021567795
 11
37.49689380536358
 21
-88.746021567795
 72
     1
 10
37.49689380536358
 20
-88.746021567795
 11
38.89484685230389
 21
-91.79983109160608
 97
        8
330
153
330
10D
330
152
330
155
330
10A
330
154
330
10B
330
10C
 92
       16
 93
        3
 72
     1
 10
36.57647636304537
 20
-90.5783072820816
 11
37.17680683742788
 21
-90.5783072820816
 72
     1
 10
37.17680683742788
 20
-90.5783072820816
 11
36.87664160023778
 21
-89.8104923160949
 72
     1
 10
36.87664160023778
 20
-89.8104923160949
 11
36.57647636304537
 21
-90.5783072820816
 97
        3
330
109
330
108
330
156
 75
     1
 76
     0
 52
45.0
 41
0.1
 77
     0
 78
     1
 53
45.0
 43
0.0
 44
0.0
 45
-0.0707106781186548
 46
0.0707106781186548
 79
     0
 98
        1
 10
0.0
 20
0.0
  0
HATCH
  5
221
330
71
100
AcDbEntity
  8
1
  6
Continuous
 62
     2
100
AcDbHatch
 10
0.0
 20
0.0
 30
0.0
210
0.0
220
0.0
230
1.0
  2
_USER
 70
     0
 71
     1
 91
        2
 92
        1
 93
        8
 72
     1
 10
38.89484685230389
 20
-91.79983109160608
 11
37.65434244204997
 21
-91.79983109160608
 72
     1
 10
37.65434244204997
 20
-91.79983109160608
 11
37.44286238857418
 21
-91.2588705473882
 72
     1
 10
37.44286238857418
 20
-91.2588705473882
 11
36.31042081190037
 21
-91.2588705473882
 72
     1
 10
36.31042081190037
 20
-91.2588705473882
 11
36.09894075842456
 21
-91.79983109160608
 72
     1
 10
36.09894075842456
 20
-91.79983109160608
 11
34.85843634817158
 21
-91.79983109160608
 72
     1
 10
34.85843634817158
 20
-91.79983109160608
 11
36.25638939511089
 21
-88.746021567795
 72
     1
 10
36.25638939511089
 20
-88.746021567795
 11
37.49689380536358
 21
-88.746021567795
 72
     1
 10
37.49689380536358
 20
-88.746021567795
 11
38.89484685230389
 21
-91.79983109160608
 97
        8
330
153
330
10D
330
152
330
155
330
10A
330
154
330
10B
330
10C
 92
       16
 93
        3
 72
     1
 10
36.57647636304537
 20
-90.5783072820816
 11
37.17680683742788
 21
-90.5783072820816
 72
     1
 10
37.17680683742788
 20
-90.5783072820816
 11
36.87664160023778
 21
-89.8104923160949
 72
     1
 10
36.87664160023778
 20
-89.8104923160949
 11
36.57647636304537
 21
-90.5783072820816
 97
        3
330
109
330
108
330
156
 75
     1
 76
     0
 52
45.0
 41
0.1
 77
     0
 78
     1
 53
45.0
 43
0.0
 44
0.0
 45
-0.0707106781186548
 46
0.0707106781186548
 79
     0
 98
        1
 10
0.0
 20
0.0
  0
HATCH
  5
222
330
71
100
AcDbEntity
  8
1
  6
Continuous
 62
     2
100
AcDbHatch
 10
0.0
 20
0.0
 30
0.0
210
0.0
220
0.0
230
1.0
  2
_USER
 70
     0
 71
     1
 91
        1
 92
        1
 93
        8
 72
     1
 10
32.70092420898936
 20
-88.746021567795
 11
32.70092420898936
 21
-89.53128687391859
 72
     1
 10
32.70092420898936
 20
-89.53128687391859
 11
33.51202324646397
 21
-89.53128687391859
 72
     1
 10
33.51202324646397
 20
-89.53128687391859
 11
33.51202324646397
 21
-91.79983109160608
 72
     1
 10
33.51202324646397
 20
-91.79983109160608
 11
34.70481594863048
 21
-91.79983109160608
 72
     1
 10
34.70481594863048
 20
-91.79983109160608
 11
34.70481594863048
 21
-89.53128687391859
 72
     1
 10
34.70481594863048
 20
-89.53128687391859
 11
35.51591498610299
 21
-89.53128687391859
 72
     1
 10
35.51591498610299
 20
-89.53128687391859
 11
35.51591498610299
 21
-88.746021567795
 72
     1
 10
35.51591498610299
 20
-88.746021567795
 11
32.70092420898936
 21
-88.746021567795
 97
        8
330
14F
330
14E
330
14D
330
10E
330
10F
330
151
330
110
330
150
 75
     1
 76
     0
 52
45.0
 41
0.1
 77
     0
 78
     1
 53
45.0
 43
0.0
 44
0.0
 45
-0.0707106781186548
 46
0.0707106781186548
 79
     0
 98
        1
 10
0.0
 20
0.0
  0
HATCH
  5
223
330
71
100
AcDbEntity
  8
1
  6
Continuous
 62
     2
100
AcDbHatch
 10
0.0
 20
0.0
 30
0.0
210
0.0
220
0.0
230
1.0
  2
_USER
 70
     0
 71
     1
 91
        1
 92
        1
 93
        8
 72
     1
 10
32.70092420898936
 20
-88.746021567795
 11
32.70092420898936
 21
-89.53128687391859
 72
     1
 10
32.70092420898936
 20
-89.53128687391859
 11
33.51202324646397
 21
-89.53128687391859
 72
     1
 10
33.51202324646397
 20
-89.53128687391859
 11
33.51202324646397
 21
-91.79983109160608
 72
     1
 10
33.51202324646397
 20
-91.79983109160608
 11
34.70481594863048
 21
-91.79983109160608
 72
     1
 10
34.70481594863048
 20
-91.79983109160608
 11
34.70481594863048
 21
-89.53128687391859
 72
     1
 10
34.70481594863048
 20
-89.53128687391859
 11
35.51591498610299
 21
-89.53128687391859
 72
     1
 10
35.51591498610299
 20
-89.53128687391859
 11
35.51591498610299
 21
-88.746021567795
 72
     1
 10
35.51591498610299
 20
-88.746021567795
 11
32.70092420898936
 21
-88.746021567795
 97
        8
330
14F
330
14E
330
14D
330
10E
330
10F
330
151
330
110
330
150
 75
     1
 76
     0
 52
45.0
 41
0.1
 77
     0
 78
     1
 53
45.0
 43
0.0
 44
0.0
 45
-0.0707106781186548
 46
0.0707106781186548
 79
     0
 98
        1
 10
0.0
 20
0.0
  0
HATCH
  5
224
330
71
100
AcDbEntity
  8
1
  6
Continuous
 62
     2
100
AcDbHatch
 10
0.0
 20
0.0
 30
0.0
210
0.0
220
0.0
230
1.0
  2
_USER
 70
     0
 71
     1
 91
        1
 92
        1
 93
       10
 72
     1
 10
35.37293079272848
 20
-85.38683109162059
 11
34.18013809056197
 21
-85.38683109162059
 72
     1
 10
34.18013809056197
 20
-85.38683109162059
 11
34.18013809056197
 21
-88.44064061543179
 72
     1
 10
34.18013809056197
 20
-88.44064061543179
 11
35.37293079272848
 21
-88.44064061543179
 72
     1
 10
35.37293079272848
 20
-88.44064061543179
 11
35.37293079272848
 21
-87.13186510522709
 72
     1
 10
35.37293079272848
 20
-87.13186510522709
 11
36.61343520298249
 21
-88.44064061543179
 72
     1
 10
36.61343520298249
 20
-88.44064061543179
 11
37.80622790514909
 21
-88.44064061543179
 72
     1
 10
37.80622790514909
 20
-88.44064061543179
 11
37.80622790514909
 21
-85.38683109162059
 72
     1
 10
37.80622790514909
 20
-85.38683109162059
 11
36.61343520298249
 21
-85.38683109162059
 72
     1
 10
36.61343520298249
 20
-85.38683109162059
 11
36.61343520298249
 21
-86.69560660182577
 72
     1
 10
36.61343520298249
 20
-86.69560660182577
 11
35.37293079272848
 21
-85.38683109162059
 97
       10
330
149
330
113
330
114
330
115
330
116
330
14C
330
111
330
14B
330
14A
330
112
 75
     1
 76
     0
 52
45.0
 41
0.1
 77
     0
 78
     1
 53
45.0
 43
0.0
 44
0.0
 45
-0.0707106781186548
 46
0.0707106781186548
 79
     0
 98
        1
 10
0.0
 20
0.0
  0
HATCH
  5
225
330
71
100
AcDbEntity
  8
1
  6
Continuous
 62
     2
100
AcDbHatch
 10
0.0
 20
0.0
 30
0.0
210
0.0
220
0.0
230
1.0
  2
_USER
 70
     0
 71
     1
 91
        1
 92
        1
 93
       10
 72
     1
 10
35.37293079272848
 20
-85.38683109162059
 11
34.18013809056197
 21
-85.38683109162059
 72
     1
 10
34.18013809056197
 20
-85.38683109162059
 11
34.18013809056197
 21
-88.44064061543179
 72
     1
 10
34.18013809056197
 20
-88.44064061543179
 11
35.37293079272848
 21
-88.44064061543179
 72
     1
 10
35.37293079272848
 20
-88.44064061543179
 11
35.37293079272848
 21
-87.13186510522709
 72
     1
 10
35.37293079272848
 20
-87.13186510522709
 11
36.61343520298249
 21
-88.44064061543179
 72
     1
 10
36.61343520298249
 20
-88.44064061543179
 11
37.80622790514909
 21
-88.44064061543179
 72
     1
 10
37.80622790514909
 20
-88.44064061543179
 11
37.80622790514909
 21
-85.38683109162059
 72
     1
 10
37.80622790514909
 20
-85.38683109162059
 11
36.61343520298249
 21
-85.38683109162059
 72
     1
 10
36.61343520298249
 20
-85.38683109162059
 11
36.61343520298249
 21
-86.69560660182577
 72
     1
 10
36.61343520298249
 20
-86.69560660182577
 11
35.37293079272848
 21
-85.38683109162059
 97
       10
330
149
330
113
330
114
330
115
330
116
330
14C
330
111
330
14B
330
14A
330
112
 75
     1
 76
     0
 52
45.0
 41
0.1
 77
     0
 78
     1
 53
45.0
 43
0.0
 44
0.0
 45
-0.0707106781186548
 46
0.0707106781186548
 79
     0
 98
        1
 10
0.0
 20
0.0
  0
HATCH
  5
226
330
71
100
AcDbEntity
  8
1
  6
Continuous
 62
     2
100
AcDbHatch
 10
0.0
 20
0.0
 30
0.0
210
0.0
220
0.0
230
1.0
  2
_USER
 70
     0
 71
     1
 91
        1
 92
        1
 93
       10
 72
     1
 10
30.12449197230987
 20
-88.746021567795
 11
28.93169927014228
 21
-88.746021567795
 72
     1
 10
28.93169927014228
 20
-88.746021567795
 11
28.93169927014228
 21
-91.79983109160608
 72
     1
 10
28.93169927014228
 20
-91.79983109160608
 11
30.12449197230987
 21
-91.79983109160608
 72
     1
 10
30.12449197230987
 20
-91.79983109160608
 11
30.12449197230987
 21
-90.4910555814015
 72
     1
 10
30.12449197230987
 20
-90.4910555814015
 11
31.36499638256277
 21
-91.79983109160608
 72
     1
 10
31.36499638256277
 20
-91.79983109160608
 11
32.55778908472917
 21
-91.79983109160608
 72
     1
 10
32.55778908472917
 20
-91.79983109160608
 11
32.55778908472917
 21
-88.746021567795
 72
     1
 10
32.55778908472917
 20
-88.746021567795
 11
31.36499638256277
 21
-88.746021567795
 72
     1
 10
31.36499638256277
 20
-88.746021567795
 11
31.36499638256277
 21
-90.05479707800009
 72
     1
 10
31.36499638256277
 20
-90.05479707800009
 11
30.12449197230987
 21
-88.746021567795
 97
       10
330
118
330
119
330
11A
330
146
330
11B
330
11C
330
145
330
148
330
147
330
117
 75
     1
 76
     0
 52
45.0
 41
0.1
 77
     0
 78
     1
 53
45.0
 43
0.0
 44
0.0
 45
-0.0707106781186548
 46
0.0707106781186548
 79
     0
 98
        1
 10
0.0
 20
0.0
  0
HATCH
  5
227
330
71
100
AcDbEntity
  8
1
  6
Continuous
 62
     2
100
AcDbHatch
 10
0.0
 20
0.0
 30
0.0
210
0.0
220
0.0
230
1.0
  2
_USER
 70
     0
 71
     1
 91
        1
 92
        1
 93
       10
 72
     1
 10
30.12449197230987
 20
-88.746021567795
 11
28.93169927014228
 21
-88.746021567795
 72
     1
 10
28.93169927014228
 20
-88.746021567795
 11
28.93169927014228
 21
-91.79983109160608
 72
     1
 10
28.93169927014228
 20
-91.79983109160608
 11
30.12449197230987
 21
-91.79983109160608
 72
     1
 10
30.12449197230987
 20
-91.79983109160608
 11
30.12449197230987
 21
-90.4910555814015
 72
     1
 10
30.12449197230987
 20
-90.4910555814015
 11
31.36499638256277
 21
-91.79983109160608
 72
     1
 10
31.36499638256277
 20
-91.79983109160608
 11
32.55778908472917
 21
-91.79983109160608
 72
     1
 10
32.55778908472917
 20
-91.79983109160608
 11
32.55778908472917
 21
-88.746021567795
 72
     1
 10
32.55778908472917
 20
-88.746021567795
 11
31.36499638256277
 21
-88.746021567795
 72
     1
 10
31.36499638256277
 20
-88.746021567795
 11
31.36499638256277
 21
-90.05479707800009
 72
     1
 10
31.36499638256277
 20
-90.05479707800009
 11
30.12449197230987
 21
-88.746021567795
 97
       10
330
118
330
119
330
11A
330
146
330
11B
330
11C
330
145
330
148
330
147
330
117
 75
     1
 76
     0
 52
45.0
 41
0.1
 77
     0
 78
     1
 53
45.0
 43
0.0
 44
0.0
 45
-0.0707106781186548
 46
0.0707106781186548
 79
     0
 98
        1
 10
0.0
 20
0.0
  0
HATCH
  5
228
330
71
100
AcDbEntity
  8
1
  6
Continuous
 62
     2
100
AcDbHatch
 10
0.0
 20
0.0
 30
0.0
210
0.0
220
0.0
230
1.0
  2
_USER
 70
     0
 71
     1
 91
        1
 92
        1
 93
       12
 72
     1
 10
29.12269703337447
 20
-85.38683109162059
 11
29.12269703337447
 21
-88.44064061543179
 72
     1
 10
29.12269703337447
 20
-88.44064061543179
 11
27.92990433120806
 21
-88.44064061543179
 72
     1
 10
27.92990433120806
 20
-88.44064061543179
 11
27.92990433120806
 21
-87.30636850658797
 72
     1
 10
27.92990433120806
 20
-87.30636850658797
 11
26.88024675330058
 21
-87.30636850658797
 72
     1
 10
26.88024675330058
 20
-87.30636850658797
 11
26.88024675330058
 21
-88.44064061543179
 72
     1
 10
26.88024675330058
 20
-88.44064061543179
 11
25.68745405113398
 21
-88.44064061543179
 72
     1
 10
25.68745405113398
 20
-88.44064061543179
 11
25.68745405113398
 21
-85.38683109162059
 72
     1
 10
25.68745405113398
 20
-85.38683109162059
 11
26.88024675330058
 21
-85.38683109162059
 72
     1
 10
26.88024675330058
 20
-85.38683109162059
 11
26.88024675330058
 21
-86.45566442495519
 72
     1
 10
26.88024675330058
 20
-86.45566442495519
 11
27.92990433120806
 21
-86.45566442495519
 72
     1
 10
27.92990433120806
 20
-86.45566442495519
 11
27.92990433120806
 21
-85.38683109162059
 72
     1
 10
27.92990433120806
 20
-85.38683109162059
 11
29.12269703337447
 21
-85.38683109162059
 97
       12
330
140
330
13F
330
13E
330
126
330
127
330
13D
330
128
330
13C
330
13B
330
13A
330
124
330
125
 75
     1
 76
     0
 52
45.0
 41
0.1
 77
     0
 78
     1
 53
45.0
 43
0.0
 44
0.0
 45
-0.0707106781186548
 46
0.0707106781186548
 79
     0
 98
        1
 10
0.0
 20
0.0
  0
HATCH
  5
229
330
71
100
AcDbEntity
  8
1
  6
Continuous
 62
     2
100
AcDbHatch
 10
0.0
 20
0.0
 30
0.0
210
0.0
220
0.0
230
1.0
  2
_USER
 70
     0
 71
     1
 91
        1
 92
        1
 93
       12
 72
     1
 10
29.12269703337447
 20
-85.38683109162059
 11
29.12269703337447
 21
-88.44064061543179
 72
     1
 10
29.12269703337447
 20
-88.44064061543179
 11
27.92990433120806
 21
-88.44064061543179
 72
     1
 10
27.92990433120806
 20
-88.44064061543179
 11
27.92990433120806
 21
-87.30636850658797
 72
     1
 10
27.92990433120806
 20
-87.30636850658797
 11
26.88024675330058
 21
-87.30636850658797
 72
     1
 10
26.88024675330058
 20
-87.30636850658797
 11
26.88024675330058
 21
-88.44064061543179
 72
     1
 10
26.88024675330058
 20
-88.44064061543179
 11
25.68745405113398
 21
-88.44064061543179
 72
     1
 10
25.68745405113398
 20
-88.44064061543179
 11
25.68745405113398
 21
-85.38683109162059
 72
     1
 10
25.68745405113398
 20
-85.38683109162059
 11
26.88024675330058
 21
-85.38683109162059
 72
     1
 10
26.88024675330058
 20
-85.38683109162059
 11
26.88024675330058
 21
-86.45566442495519
 72
     1
 10
26.88024675330058
 20
-86.45566442495519
 11
27.92990433120806
 21
-86.45566442495519
 72
     1
 10
27.92990433120806
 20
-86.45566442495519
 11
27.92990433120806
 21
-85.38683109162059
 72
     1
 10
27.92990433120806
 20
-85.38683109162059
 11
29.12269703337447
 21
-85.38683109162059
 97
       12
330
140
330
13F
330
13E
330
126
330
127
330
13D
330
128
330
13C
330
13B
330
13A
330
124
330
125
 75
     1
 76
     0
 52
45.0
 41
0.1
 77
     0
 78
     1
 53
45.0
 43
0.0
 44
0.0
 45
-0.0707106781186548
 46
0.0707106781186548
 79
     0
 98
        1
 10
0.0
 20
0.0
  0
ENDBLK
  5
73
330
71
100
AcDbEntity
  8
0
100
AcDbBlockEnd
  0
BLOCK
  5
75
330
74
100
AcDbEntity
  8
0
100
AcDbBlockBegin
  2
_punkt
 70
     0
 10
141.0000008471634
 20
-99.09333109162239
 30
0.0
  3
_punkt
  1

  0
LINE
  5
22A
330
74
100
AcDbEntity
  8
1
  6
Continuous
 62
     2
100
AcDbLine
 10
141.0000008471634
 20
-99.09333109162239
 30
0.0
 11
141.0000008471634
 21
-104.0933310916225
 31
0.0
  0
LINE
  5
22B
330
74
100
AcDbEntity
  8
1
  6
Continuous
 62
     2
100
AcDbLine
 10
141.0000008471634
 20
-99.09333109162239
 30
0.0
 11
146.0000008471624
 21
-99.09333109162239
 31
0.0
  0
ENDBLK
  5
76
330
74
100
AcDbEntity
  8
0
100
AcDbBlockEnd
  0
BLOCK
  5
7A
330
77
100
AcDbEntity
  8
0
100
AcDbBlockBegin
  2
A4I_CS
 70
     0
 10
141.0000008471634
 20
-104.0933310916225
 30
0.0
  3
A4I_CS
  1

  0
INSERT
  5
78
330
77
100
AcDbEntity
  8
1
100
AcDbBlockReference
  2
_rahmen
 10
141.0000008471634
 20
-104.0933310916225
 30
0.0
  0
INSERT
  5
79
330
77
100
AcDbEntity
  8
1
100
AcDbBlockReference
  2
_punkt
 10
141.0000008471634
 20
-99.09333109162239
 30
0.0
  0
ENDBLK
  5
7B
330
77
100
AcDbEntity
  8
0
100
AcDbBlockEnd
  0
BLOCK
  5
84
330
7C
100
AcDbEntity
  8
0
100
AcDbBlockBegin
  2
1
 70
     0
 10
0.0
 20
0.0
 30
0.0
  3
1
  1

  0
INSERT
  5
7D
330
7C
100
AcDbEntity
  8
0
100
AcDbBlockReference
  2
AllgSicht1
 10
69.29999899999498
 20
-20.0
 30
0.0
  0
INSERT
  5
7E
330
7C
100
AcDbEntity
  8
0
100
AcDbBlockReference
  2
Drfsicht1
 10
-39.29999923706117
 20
-21.75000071526142
 30
0.0
  0
INSERT
  5
7F
330
7C
100
AcDbEntity
  8
0
100
AcDbBlockReference
  2
Rckans1
 10
69.2999992370604
 20
37.99999999999993
 30
0.0
  0
INSERT
  5
80
330
7C
100
AcDbEntity
  8
0
100
AcDbBlockReference
  2
SA_Links1
 10
15.00000000001
 20
37.99999999999987
 30
0.0
  0
INSERT
  5
81
330
7C
100
AcDbEntity
  8
0
100
AcDbBlockReference
  2
SA_Rechts1
 10
-104.599998474127
 20
38.0
 30
0.0
  0
INSERT
  5
82
330
7C
100
AcDbEntity
  8
0
100
AcDbBlockReference
  2
Vordans1
 10
-39.29999923706117
 20
38.0
 30
0.0
  0
INSERT
  5
83
330
7C
100
AcDbEntity
  8
0
100
AcDbBlockReference
  2
A4I_CS
 10
141.0000008471634
 20
-104.0933310916225
 30
0.0
  0
ENDBLK
  5
85
330
7C
100
AcDbEntity
  8
0
100
AcDbBlockEnd
  0
BLOCK
  5
B0
330
A7
100
AcDbEntity
  8
0
100
AcDbBlockBegin
  2
*D17
 70
     1
 10
0.0
 20
0.0
 30
0.0
  3
*D17
  1

  0
LINE
  5
A8
330
A7
100
AcDbEntity
  8
1
  6
Continuous
 62
     2
100
AcDbLine
 10
-84.62831358494046
 20
-1.84390257823993
 30
0.0
 11
-84.62831358494046
 21
-20.65000002862079
 31
0.0
  0
LINE
  5
A9
330
A7
100
AcDbEntity
  8
1
  6
Continuous
 62
     2
100
AcDbLine
 10
-84.62831358494046
 20
-20.65000002862079
 30
0.0
 11
-84.62831358494046
 21
-22.8500000286208
 31
0.0
  0
LINE
  5
AA
330
A7
100
AcDbEntity
  8
1
  6
Continuous
 62
     2
100
AcDbLine
 10
-84.62831358494046
 20
-22.8500000286208
 30
0.0
 11
-84.62831358494046
 21
-29.8500000286208
 31
0.0
  0
LINE
  5
AB
330
A7
100
AcDbEntity
  8
1
  6
Continuous
 62
     2
100
AcDbLine
 10
-71.6000001684542
 20
-20.65000002862079
 30
0.0
 11
-86.12831358494046
 21
-20.65000002862079
 31
0.0
  0
LINE
  5
AC
330
A7
100
AcDbEntity
  8
1
  6
Continuous
 62
     2
100
AcDbLine
 10
-71.6000001684542
 20
-22.8500000286208
 30
0.0
 11
-86.12831358494046
 21
-22.8500000286208
 31
0.0
  0
SOLID
  5
AD
330
A7
100
AcDbEntity
  8
1
 62
     2
100
AcDbTrace
 10
-85.08909732649634
 20
-17.15000002862079
 30
0.0
 11
-84.16752984338457
 21
-17.15000002862079
 31
0.0
 12
-84.62831358494046
 22
-20.65000002862079
 32
0.0
 13
-84.62831358494046
 23
-20.65000002862079
 33
0.0
  0
SOLID
  5
AE
330
A7
100
AcDbEntity
  8
1
 62
     2
100
AcDbTrace
 10
-84.16752984338457
 20
-26.3500000286208
 30
0.0
 11
-85.08909732649634
 21
-26.3500000286208
 31
0.0
 12
-84.62831358494046
 22
-22.8500000286208
 32
0.0
 13
-84.62831358494046
 23
-22.8500000286208
 33
0.0
  0
MTEXT
  5
AF
330
A7
100
AcDbEntity
  8
1
 62
     3
100
AcDbMText
 10
-86.47831358494045
 20
-8.31890257823993
 30
0.0
 40
3.5
 41
0.0
 71
     7
 72
     1
  1
2,2
  7
CONVERTER_11
 11
0.0
 21
1.0
 31
0.0
 73
     1
 44
0.60024009603842
  0
ENDBLK
  5
B1
330
A7
100
AcDbEntity
  8
0
100
AcDbBlockEnd
  0
BLOCK
  5
E4
330
DC
100
AcDbEntity
  8
0
100
AcDbBlockBegin
  2
*D18
 70
     1
 10
0.0
 20
0.0
 30
0.0
  3
*D18
  1

  0
LINE
  5
DD
330
DC
100
AcDbEntity
  8
1
  6
Continuous
 62
     2
100
AcDbLine
 10
-86.96547117225614
 20
55.65000042914559
 30
0.0
 11
-86.96547117225614
 21
20.35000042914063
 31
0.0
  0
LINE
  5
DE
330
DC
100
AcDbEntity
  8
1
  6
Continuous
 62
     2
100
AcDbLine
 10
-44.81702714506402
 20
55.65000042914559
 30
0.0
 11
-88.46547117225614
 21
55.65000042914559
 31
0.0
  0
LINE
  5
DF
330
DC
100
AcDbEntity
  8
1
  6
Continuous
 62
     2
100
AcDbLine
 10
-72.56613307964966
 20
20.35000042914063
 30
0.0
 11
-88.46547117225614
 21
20.35000042914063
 31
0.0
  0
LINE
  5
E0
330
DC
100
AcDbEntity
  8
1
  6
Continuous
 62
     2
100
AcDbLine
 10
-63.32452486084519
 20
20.35000042914063
 30
0.0
 11
-70.70395266866726
 21
20.35000042914063
 31
0.0
  0
SOLID
  5
E1
330
DC
100
AcDbEntity
  8
1
 62
     2
100
AcDbTrace
 10
-86.50468743070026
 20
52.15000042914559
 30
0.0
 11
-87.42625491381203
 21
52.15000042914559
 31
0.0
 12
-86.96547117225614
 22
55.65000042914559
 32
0.0
 13
-86.96547117225614
 23
55.65000042914559
 33
0.0
  0
SOLID
  5
E2
330
DC
100
AcDbEntity
  8
1
 62
     2
100
AcDbTrace
 10
-87.42625491381203
 20
23.85000042914063
 30
0.0
 11
-86.50468743070026
 21
23.85000042914063
 31
0.0
 12
-86.96547117225614
 22
20.35000042914063
 32
0.0
 13
-86.96547117225614
 23
20.35000042914063
 33
0.0
  0
MTEXT
  5
E3
330
DC
100
AcDbEntity
  8
1
 62
     3
100
AcDbMText
 10
-88.81547117225614
 20
32.9879866755463
 30
0.0
 40
3.5
 41
0.0
 71
     7
 72
     1
  1
35,3
  7
CONVERTER_11
 11
0.0
 21
1.0
 31
0.0
 73
     1
 44
0.60024009603842
  0
ENDBLK
  5
E5
330
DC
100
AcDbEntity
  8
0
100
AcDbBlockEnd
  0
BLOCK
  5
EF
330
E8
100
AcDbEntity
  8
0
100
AcDbBlockBegin
  2
*D19
 70
     1
 10
0.0
 20
0.0
 30
0.0
  3
*D19
  1

  0
LINE
  5
E9
330
E8
100
AcDbEntity
  8
1
  6
Continuous
 62
     2
100
AcDbLine
 10
-71.60000016845139
 20
7.40253281492601
 30
0.0
 11
-7.00000016845139
 21
7.40253281492601
 31
0.0
  0
LINE
  5
EA
330
E8
100
AcDbEntity
  8
1
  6
Continuous
 62
     2
100
AcDbLine
 10
-71.60000016845139
 20
34.73024437378547
 30
0.0
 11
-71.60000016845139
 21
5.40253281492601
 31
0.0
  0
LINE
  5
EB
330
E8
100
AcDbEntity
  8
1
  6
Continuous
 62
     2
100
AcDbLine
 10
-7.00000016845139
 20
34.73024437380112
 30
0.0
 11
-7.00000016845139
 21
5.40253281492601
 31
0.0
  0
SOLID
  5
EC
330
E8
100
AcDbEntity
  8
1
 62
     2
100
AcDbTrace
 10
-68.10000016845139
 20
7.8633165564819
 30
0.0
 11
-68.10000016845139
 21
6.94174907337012
 31
0.0
 12
-71.60000016845139
 22
7.40253281492601
 32
0.0
 13
-71.60000016845139
 23
7.40253281492601
 33
0.0
  0
SOLID
  5
ED
330
E8
100
AcDbEntity
  8
1
 62
     2
100
AcDbTrace
 10
-10.50000016845139
 20
6.94174907337013
 30
0.0
 11
-10.50000016845139
 21
7.8633165564819
 31
0.0
 12
-7.00000016845139
 22
7.40253281492601
 32
0.0
 13
-7.00000016845139
 23
7.40253281492601
 33
0.0
  0
MTEXT
  5
EE
330
E8
100
AcDbEntity
  8
1
 62
     3
100
AcDbMText
 10
-43.07557692307651
 20
9.75253281492601
 30
0.0
 40
3.5
 41
0.0
 71
     7
 72
     1
  1
64,6
  7
CONVERTER_11
 11
0.9999999999970619
 21
2.424068405545306E-6
 31
0.0
 73
     1
 44
0.60024009603842
  0
ENDBLK
  5
F0
330
E8
100
AcDbEntity
  8
0
100
AcDbBlockEnd
  0
ENDSEC
  0
SECTION
  2
ENTITIES
  0
INSERT
  5
86
330
1F
100
AcDbEntity
  8
1
100
AcDbBlockReference
  2
1
 10
0.0
 20
0.0
 30
0.0
  0
ENDSEC
  0
SECTION
  2
OBJECTS
  0
DICTIONARY
  5
C
330
0
100
AcDbDictionary
281
     1
  3
ACAD_GROUP
350
D
  3
ACAD_LAYOUT
350
1A
  3
ACAD_MATERIAL
350
3B
  3
ACAD_MLEADERSTYLE
350
253
  3
ACAD_MLINESTYLE
350
17
  3
ACAD_PLOTSETTINGS
350
19
  3
ACAD_PLOTSTYLENAME
350
E
  3
ACAD_TABLESTYLE
350
252
  3
ACAD_VISUALSTYLE
350
2A
  0
DICTIONARY
  5
D
102
{ACAD_REACTORS
330
C
102
}
330
C
100
AcDbDictionary
281
     1
  0
DICTIONARY
  5
1A
102
{ACAD_REACTORS
330
C
102
}
330
C
100
AcDbDictionary
281
     1
  3
Layout1
350
1E
  3
Layout2
350
26
  3
Model
350
22
  0
DICTIONARY
  5
3B
102
{ACAD_REACTORS
330
C
102
}
330
C
100
AcDbDictionary
281
     1
  3
ByBlock
350
3D
  3
ByLayer
350
3C
  3
Global
350
3E
  0
DICTIONARY
  5
253
102
{ACAD_REACTORS
330
C
102
}
330
C
100
AcDbDictionary
281
     1
  0
DICTIONARY
  5
17
102
{ACAD_REACTORS
330
C
102
}
330
C
100
AcDbDictionary
281
     1
  3
Standard
350
18
  0
DICTIONARY
  5
19
102
{ACAD_REACTORS
330
C
102
}
330
C
100
AcDbDictionary
281
     1
  0
ACDBDICTIONARYWDFLT
  5
E
102
{ACAD_REACTORS
330
C
102
}
330
C
100
AcDbDictionary
281
     1
  3
Normal
350
F
100
AcDbDictionaryWithDefault
340
F
  0
DICTIONARY
  5
252
102
{ACAD_REACTORS
330
C
102
}
330
C
100
AcDbDictionary
281
     1
  0
DICTIONARY
  5
2A
102
{ACAD_REACTORS
330
C
102
}
330
C
100
AcDbDictionary
281
     1
  3
2dWireframe
350
2F
  3
3D Hidden
350
31
  3
3dWireframe
350
30
  3
Basic
350
32
  3
Brighten
350
36
  3
ColorChange
350
3A
  3
Conceptual
350
34
  3
Dim
350
35
  3
Facepattern
350
39
  3
Flat
350
2B
  3
FlatWithEdges
350
2C
  3
Gouraud
350
2D
  3
GouraudWithEdges
350
2E
  3
Linepattern
350
38
  3
Realistic
350
33
  3
Thicken
350
37
  0
LAYOUT
  5
1E
102
{ACAD_REACTORS
330
1A
102
}
330
1A
100
AcDbPlotSettings
  1

  2
none_device
  4

  6

 40
0.0
 41
0.0
 42
0.0
 43
0.0
 44
0.0
 45
0.0
 46
0.0
 47
0.0
 48
0.0
 49
0.0
140
0.0
141
0.0
142
1.0
143
1.0
 70
   688
 72
     0
 73
     0
 74
     5
  7

 75
    16
 76
     0
 77
     2
 78
   300
147
1.0
148
0.0
149
0.0
100
AcDbLayout
  1
Layout1
 70
     1
 71
     1
 10
0.0
 20
0.0
 11
12.0
 21
9.0
 12
0.0
 22
0.0
 32
0.0
 14
1.00000000000000E+20
 24
1.00000000000000E+20
 34
1.00000000000000E+20
 15
-1.00000000000000E+20
 25
-1.00000000000000E+20
 35
-1.00000000000000E+20
146
0.0
 13
0.0
 23
0.0
 33
0.0
 16
1.0
 26
0.0
 36
0.0
 17
0.0
 27
1.0
 37
0.0
 76
     0
330
1B
  0
LAYOUT
  5
26
102
{ACAD_REACTORS
330
1A
102
}
330
1A
100
AcDbPlotSettings
  1

  2
none_device
  4

  6

 40
0.0
 41
0.0
 42
0.0
 43
0.0
 44
0.0
 45
0.0
 46
0.0
 47
0.0
 48
0.0
 49
0.0
140
0.0
141
0.0
142
1.0
143
1.0
 70
   688
 72
     0
 73
     0
 74
     5
  7

 75
    16
 76
     0
 77
     2
 78
   300
147
1.0
148
0.0
149
0.0
100
AcDbLayout
  1
Layout2
 70
     1
 71
     2
 10
0.0
 20
0.0
 11
0.0
 21
0.0
 12
0.0
 22
0.0
 32
0.0
 14
0.0
 24
0.0
 34
0.0
 15
0.0
 25
0.0
 35
0.0
146
0.0
 13
0.0
 23
0.0
 33
0.0
 16
1.0
 26
0.0
 36
0.0
 17
0.0
 27
1.0
 37
0.0
 76
     0
330
23
  0
LAYOUT
  5
22
102
{ACAD_REACTORS
330
1A
102
}
330
1A
100
AcDbPlotSettings
  1

  2
none_device
  4

  6

 40
0.0
 41
0.0
 42
0.0
 43
0.0
 44
0.0
 45
0.0
 46
0.0
 47
0.0
 48
0.0
 49
0.0
140
0.0
141
0.0
142
1.0
143
1.0
 70
  1712
 72
     0
 73
     0
 74
     0
  7

 75
     0
 76
     0
 77
     2
 78
   300
147
1.0
148
0.0
149
0.0
100
AcDbLayout
  1
Model
 70
     1
 71
     0
 10
0.0
 20
0.0
 11
12.0
 21
9.0
 12
0.0
 22
0.0
 32
0.0
 14
-150.9999991528357
 24
-104.0933310916225
 34
0.0
 15
146.0000008471624
 25
105.9066689083776
 35
0.0
146
0.0
 13
0.0
 23
0.0
 33
0.0
 16
1.0
 26
0.0
 36
0.0
 17
0.0
 27
1.0
 37
0.0
 76
     0
330
1F
331
29
  0
MATERIAL
  5
3D
102
{ACAD_REACTORS
330
3B
102
}
102
{ACAD_XDICTIONARY
360
24E
102
}
330
3B
100
AcDbMaterial
  1
ByBlock
  0
MATERIAL
  5
3C
102
{ACAD_REACTORS
330
3B
102
}
102
{ACAD_XDICTIONARY
360
24C
102
}
330
3B
100
AcDbMaterial
  1
ByLayer
  0
MATERIAL
  5
3E
102
{ACAD_REACTORS
330
3B
102
}
102
{ACAD_XDICTIONARY
360
250
102
}
330
3B
100
AcDbMaterial
  1
Global
  0
MLINESTYLE
  5
18
102
{ACAD_REACTORS
330
17
102
}
330
17
100
AcDbMlineStyle
  2
Standard
 70
     0
  3

 62
   256
 51
90.0
 52
90.0
 71
     2
 49
0.5
 62
   256
  6
BYLAYER
 49
-0.5
 62
   256
  6
BYLAYER
  0
ACDBPLACEHOLDER
  5
F
102
{ACAD_REACTORS
330
E
102
}
330
E
  0
VISUALSTYLE
  5
2F
102
{ACAD_REACTORS
330
2A
102
}
102
{ACAD_XDICTIONARY
360
234
102
}
330
2A
100
AcDbVisualStyle
  2
2dWireframe
 70
     4
 71
     0
 72
     2
 73
     0
 90
        0
 40
-0.6
 41
-30.0
 62
     5
 63
     7
421
 16777215
 74
     1
 91
        4
 64
     7
 65
   257
 75
     1
175
     1
 42
1.0
 92
        0
 66
   257
 43
1.0
 76
     1
 77
     6
 78
     2
 67
     7
 79
     5
170
     0
171
     0
290
     0
174
     0
 93
        1
 44
0.0
173
     0
291
     0
 45
0.0
1001
ACAD
1000
AcDbSavedByObjectVersion
1070
     0
  0
VISUALSTYLE
  5
31
102
{ACAD_REACTORS
330
2A
102
}
102
{ACAD_XDICTIONARY
360
238
102
}
330
2A
100
AcDbVisualStyle
  2
3D Hidden
 70
     6
 71
     1
 72
     2
 73
     2
 90
        0
 40
-0.6
 41
-30.0
 62
     5
 63
     7
421
 16777215
 74
     2
 91
        2
 64
     7
 65
   257
 75
     2
175
     1
 42
40.0
 92
        0
 66
   257
 43
1.0
 76
     1
 77
     6
 78
     2
 67
     7
 79
     3
170
     0
171
     0
290
     0
174
     0
 93
        1
 44
0.0
173
     0
291
     0
 45
0.0
1001
ACAD
1000
AcDbSavedByObjectVersion
1070
     0
  0
VISUALSTYLE
  5
30
102
{ACAD_REACTORS
330
2A
102
}
102
{ACAD_XDICTIONARY
360
236
102
}
330
2A
100
AcDbVisualStyle
  2
3dWireframe
 70
     5
 71
     0
 72
     2
 73
     0
 90
        0
 40
-0.6
 41
-30.0
 62
     5
 63
     7
421
 16777215
 74
     1
 91
        4
 64
     7
 65
   257
 75
     1
175
     1
 42
1.0
 92
        0
 66
   257
 43
1.0
 76
     1
 77
     6
 78
     2
 67
     7
 79
     5
170
     0
171
     0
290
     0
174
     0
 93
        1
 44
0.0
173
     0
291
     0
 45
0.0
1001
ACAD
1000
AcDbSavedByObjectVersion
1070
     0
  0
VISUALSTYLE
  5
32
102
{ACAD_REACTORS
330
2A
102
}
102
{ACAD_XDICTIONARY
360
23A
102
}
330
2A
100
AcDbVisualStyle
  2
Basic
 70
     7
 71
     1
 72
     0
 73
     1
 90
        0
 40
-0.6
 41
-30.0
 62
     5
 63
     7
421
 16777215
 74
     0
 91
        4
 64
     7
 65
   257
 75
     1
175
     1
 42
1.0
 92
        8
 66
     7
 43
1.0
 76
     1
 77
     6
 78
     2
 67
     7
 79
     5
170
     0
171
     0
290
     0
174
     0
 93
        1
 44
0.0
173
     0
291
     1
 45
0.0
1001
ACAD
1000
AcDbSavedByObjectVersion
1070
     0
  0
VISUALSTYLE
  5
36
102
{ACAD_REACTORS
330
2A
102
}
102
{ACAD_XDICTIONARY
360
242
102
}
330
2A
100
AcDbVisualStyle
  2
Brighten
 70
    12
 71
     2
 72
     2
 73
     0
 90
        0
 40
-0.6
 41
-30.0
 62
     5
 63
     7
421
 16777215
 74
     1
 91
        4
 64
     7
 65
   257
 75
     1
175
     1
 42
1.0
 92
        8
 66
     7
 43
1.0
 76
     1
 77
     6
 78
     2
 67
     7
 79
     5
170
     0
171
     0
290
     0
174
     0
 93
        1
 44
50.0
173
     0
291
     1
 45
0.0
1001
ACAD
1000
AcDbSavedByObjectVersion
1070
     0
  0
VISUALSTYLE
  5
3A
102
{ACAD_REACTORS
330
2A
102
}
102
{ACAD_XDICTIONARY
360
24A
102
}
330
2A
100
AcDbVisualStyle
  2
ColorChange
 70
    16
 71
     2
 72
     2
 73
     3
 90
        0
 40
-0.6
 41
-30.0
 62
     5
 63
     8
421
  8421504
 74
     1
 91
        4
 64
     7
 65
   257
 75
     1
175
     1
 42
1.0
 92
        8
 66
     8
424
  8421504
 43
1.0
 76
     1
 77
     6
 78
     2
 67
     7
 79
     5
170
     0
171
     0
290
     0
174
     0
 93
        1
 44
0.0
173
     0
291
     1
 45
0.0
1001
ACAD
1000
AcDbSavedByObjectVersion
1070
     0
  0
VISUALSTYLE
  5
34
102
{ACAD_REACTORS
330
2A
102
}
102
{ACAD_XDICTIONARY
360
23E
102
}
330
2A
100
AcDbVisualStyle
  2
Conceptual
 70
     9
 71
     3
 72
     2
 73
     0
 90
        0
 40
-0.6
 41
-30.0
 62
     5
 63
     7
421
 16777215
 74
     2
 91
        2
 64
     7
 65
   257
 75
     1
175
     1
 42
40.0
 92
        8
 66
     7
 43
1.0
 76
     1
 77
     6
 78
     2
 67
     7
 79
     3
170
     0
171
     0
290
     0
174
     0
 93
        1
 44
0.0
173
     0
291
     0
 45
0.0
1001
ACAD
1000
AcDbSavedByObjectVersion
1070
     0
  0
VISUALSTYLE
  5
35
102
{ACAD_REACTORS
330
2A
102
}
102
{ACAD_XDICTIONARY
360
240
102
}
330
2A
100
AcDbVisualStyle
  2
Dim
 70
    11
 71
     2
 72
     2
 73
     0
 90
        0
 40
-0.6
 41
-30.0
 62
     5
 63
     7
421
 16777215
 74
     1
 91
        4
 64
     7
 65
   257
 75
     1
175
     1
 42
1.0
 92
        8
 66
     7
 43
1.0
 76
     1
 77
     6
 78
     2
 67
     7
 79
     5
170
     0
171
     0
290
     0
174
     0
 93
        1
 44
-50.0
173
     0
291
     1
 45
0.0
1001
ACAD
1000
AcDbSavedByObjectVersion
1070
     0
  0
VISUALSTYLE
  5
39
102
{ACAD_REACTORS
330
2A
102
}
102
{ACAD_XDICTIONARY
360
248
102
}
330
2A
100
AcDbVisualStyle
  2
Facepattern
 70
    15
 71
     2
 72
     2
 73
     0
 90
        0
 40
-0.6
 41
-30.0
 62
     5
 63
     7
421
 16777215
 74
     1
 91
        4
 64
     7
 65
   257
 75
     1
175
     1
 42
1.0
 92
        8
 66
     7
 43
1.0
 76
     1
 77
     6
 78
     2
 67
     7
 79
     5
170
     0
171
     0
290
     0
174
     0
 93
        1
 44
0.0
173
     0
291
     1
 45
0.0
1001
ACAD
1000
AcDbSavedByObjectVersion
1070
     0
  0
VISUALSTYLE
  5
2B
102
{ACAD_REACTORS
330
2A
102
}
102
{ACAD_XDICTIONARY
360
22C
102
}
330
2A
100
AcDbVisualStyle
  2
Flat
 70
     0
 71
     2
 72
     1
 73
     1
 90
        2
 40
-0.6
 41
30.0
 62
     5
 63
     7
421
 16777215
 74
     0
 91
        4
 64
     7
 65
   257
 75
     1
175
     1
 42
1.0
 92
        8
 66
     7
 43
1.0
 76
     1
 77
     6
 78
     2
 67
     7
 79
     5
170
     0
171
     0
290
     0
174
     0
 93
       13
 44
0.0
173
     0
291
     1
 45
0.0
1001
ACAD
1000
AcDbSavedByObjectVersion
1070
     0
  0
VISUALSTYLE
  5
2C
102
{ACAD_REACTORS
330
2A
102
}
102
{ACAD_XDICTIONARY
360
22E
102
}
330
2A
100
AcDbVisualStyle
  2
FlatWithEdges
 70
     1
 71
     2
 72
     1
 73
     1
 90
        2
 40
-0.6
 41
30.0
 62
     5
 63
     7
421
 16777215
 74
     1
 91
        4
 64
     7
 65
   257
 75
     1
175
     1
 42
1.0
 92
        0
 66
   257
 43
1.0
 76
     1
 77
     6
 78
     2
 67
     7
 79
     5
170
     0
171
     0
290
     0
174
     0
 93
       13
 44
0.0
173
     0
291
     1
 45
0.0
1001
ACAD
1000
AcDbSavedByObjectVersion
1070
     0
  0
VISUALSTYLE
  5
2D
102
{ACAD_REACTORS
330
2A
102
}
102
{ACAD_XDICTIONARY
360
230
102
}
330
2A
100
AcDbVisualStyle
  2
Gouraud
 70
     2
 71
     2
 72
     2
 73
     1
 90
        2
 40
-0.6
 41
30.0
 62
     5
 63
     7
421
 16777215
 74
     0
 91
        4
 64
     7
 65
   257
 75
     1
175
     1
 42
1.0
 92
        0
 66
     7
 43
1.0
 76
     1
 77
     6
 78
     2
 67
     7
 79
     5
170
     0
171
     0
290
     0
174
     0
 93
       13
 44
0.0
173
     0
291
     1
 45
0.0
1001
ACAD
1000
AcDbSavedByObjectVersion
1070
     0
  0
VISUALSTYLE
  5
2E
102
{ACAD_REACTORS
330
2A
102
}
102
{ACAD_XDICTIONARY
360
232
102
}
330
2A
100
AcDbVisualStyle
  2
GouraudWithEdges
 70
     3
 71
     2
 72
     2
 73
     1
 90
        2
 40
-0.6
 41
30.0
 62
     5
 63
     7
421
 16777215
 74
     1
 91
        4
 64
     7
 65
   257
 75
     1
175
     1
 42
1.0
 92
        0
 66
   257
 43
1.0
 76
     1
 77
     6
 78
     2
 67
     7
 79
     5
170
     0
171
     0
290
     0
174
     0
 93
       13
 44
0.0
173
     0
291
     1
 45
0.0
1001
ACAD
1000
AcDbSavedByObjectVersion
1070
     0
  0
VISUALSTYLE
  5
38
102
{ACAD_REACTORS
330
2A
102
}
102
{ACAD_XDICTIONARY
360
246
102
}
330
2A
100
AcDbVisualStyle
  2
Linepattern
 70
    14
 71
     2
 72
     2
 73
     0
 90
        0
 40
-0.6
 41
-30.0
 62
     5
 63
     7
421
 16777215
 74
     1
 91
        4
 64
     7
 65
   257
 75
     7
175
     7
 42
1.0
 92
        8
 66
     7
 43
1.0
 76
     1
 77
     6
 78
     2
 67
     7
 79
     5
170
     0
171
     0
290
     0
174
     0
 93
        1
 44
0.0
173
     0
291
     1
 45
0.0
1001
ACAD
1000
AcDbSavedByObjectVersion
1070
     0
  0
VISUALSTYLE
  5
33
102
{ACAD_REACTORS
330
2A
102
}
102
{ACAD_XDICTIONARY
360
23C
102
}
330
2A
100
AcDbVisualStyle
  2
Realistic
 70
     8
 71
     2
 72
     2
 73
     0
 90
        0
 40
-0.6
 41
-30.0
 62
     5
 63
     7
421
 16777215
 74
     1
 91
        0
 64
     7
 65
   257
 75
     1
175
     1
 42
1.0
 92
        8
 66
     8
424
  7895160
 43
1.0
 76
     1
 77
     6
 78
     2
 67
     7
 79
     5
170
     0
171
     0
290
     0
174
     0
 93
       13
 44
0.0
173
     0
291
     0
 45
0.0
1001
ACAD
1000
AcDbSavedByObjectVersion
1070
     0
  0
VISUALSTYLE
  5
37
102
{ACAD_REACTORS
330
2A
102
}
102
{ACAD_XDICTIONARY
360
244
102
}
330
2A
100
AcDbVisualStyle
  2
Thicken
 70
    13
 71
     2
 72
     2
 73
     0
 90
        0
 40
-0.6
 41
-30.0
 62
     5
 63
     7
421
 16777215
 74
     1
 91
        4
 64
     7
 65
   257
 75
     1
175
     1
 42
1.0
 92
       12
 66
     7
 43
1.0
 76
     1
 77
     6
 78
     2
 67
     7
 79
     5
170
     0
171
     0
290
     0
174
     0
 93
        1
 44
0.0
173
     0
291
     1
 45
0.0
1001
ACAD
1000
AcDbSavedByObjectVersion
1070
     0
  0
DICTIONARY
  5
24E
330
3D
100
AcDbDictionary
280
     1
281
     1
  3
ACAD_XREC_ROUNDTRIP
360
24F
  0
DICTIONARY
  5
24C
330
3C
100
AcDbDictionary
280
     1
281
     1
  3
ACAD_XREC_ROUNDTRIP
360
24D
  0
DICTIONARY
  5
250
330
3E
100
AcDbDictionary
280
     1
281
     1
  3
ACAD_XREC_ROUNDTRIP
360
251
  0
DICTIONARY
  5
234
330
2F
100
AcDbDictionary
280
     1
281
     1
  3
ACAD_XREC_ROUNDTRIP
360
235
  0
DICTIONARY
  5
238
330
31
100
AcDbDictionary
280
     1
281
     1
  3
ACAD_XREC_ROUNDTRIP
360
239
  0
DICTIONARY
  5
236
330
30
100
AcDbDictionary
280
     1
281
     1
  3
ACAD_XREC_ROUNDTRIP
360
237
  0
DICTIONARY
  5
23A
330
32
100
AcDbDictionary
280
     1
281
     1
  3
ACAD_XREC_ROUNDTRIP
360
23B
  0
DICTIONARY
  5
242
330
36
100
AcDbDictionary
280
     1
281
     1
  3
ACAD_XREC_ROUNDTRIP
360
243
  0
DICTIONARY
  5
24A
330
3A
100
AcDbDictionary
280
     1
281
     1
  3
ACAD_XREC_ROUNDTRIP
360
24B
  0
DICTIONARY
  5
23E
330
34
100
AcDbDictionary
280
     1
281
     1
  3
ACAD_XREC_ROUNDTRIP
360
23F
  0
DICTIONARY
  5
240
330
35
100
AcDbDictionary
280
     1
281
     1
  3
ACAD_XREC_ROUNDTRIP
360
241
  0
DICTIONARY
  5
248
330
39
100
AcDbDictionary
280
     1
281
     1
  3
ACAD_XREC_ROUNDTRIP
360
249
  0
DICTIONARY
  5
22C
330
2B
100
AcDbDictionary
280
     1
281
     1
  3
ACAD_XREC_ROUNDTRIP
360
22D
  0
DICTIONARY
  5
22E
330
2C
100
AcDbDictionary
280
     1
281
     1
  3
ACAD_XREC_ROUNDTRIP
360
22F
  0
DICTIONARY
  5
230
330
2D
100
AcDbDictionary
280
     1
281
     1
  3
ACAD_XREC_ROUNDTRIP
360
231
  0
DICTIONARY
  5
232
330
2E
100
AcDbDictionary
280
     1
281
     1
  3
ACAD_XREC_ROUNDTRIP
360
233
  0
DICTIONARY
  5
246
330
38
100
AcDbDictionary
280
     1
281
     1
  3
ACAD_XREC_ROUNDTRIP
360
247
  0
DICTIONARY
  5
23C
330
33
100
AcDbDictionary
280
     1
281
     1
  3
ACAD_XREC_ROUNDTRIP
360
23D
  0
DICTIONARY
  5
244
330
37
100
AcDbDictionary
280
     1
281
     1
  3
ACAD_XREC_ROUNDTRIP
360
245
  0
XRECORD
  5
24F
102
{ACAD_REACTORS
330
24E
102
}
330
24E
100
AcDbXrecord
280
     1
102
MATERIAL
148
0.0
149
0.0
149
0.0
 93
        0
 94
      127
282
     0
 72
     1
 77
     1
171
     1
175
     1
179
     1
273
     0
  0
XRECORD
  5
24D
102
{ACAD_REACTORS
330
24C
102
}
330
24C
100
AcDbXrecord
280
     1
102
MATERIAL
148
0.0
149
0.0
149
0.0
 93
        0
 94
      127
282
     0
 72
     1
 77
     1
171
     1
175
     1
179
     1
273
     0
  0
XRECORD
  5
251
102
{ACAD_REACTORS
330
250
102
}
330
250
100
AcDbXrecord
280
     1
102
MATERIAL
148
0.0
149
0.0
149
0.0
 93
        0
 94
      127
282
     0
 72
     1
 77
     1
171
     1
175
     1
179
     1
273
     0
  0
XRECORD
  5
235
102
{ACAD_REACTORS
330
234
102
}
330
234
100
AcDbXrecord
280
     1
102
RTVSPropertyOp0
 70
     1
102
RTVSPropertyOp1
 70
     1
102
RTVSPropertyOp2
 70
     1
102
RTVSPropertyOp3
 70
     1
102
RTVSPropertyOp4
 70
     1
102
RTVSPropertyOp5
 70
     1
102
RTVSPropertyOp6
 70
     1
102
RTVSPropertyOp7
 70
     1
102
RTVSPropertyOp8
 70
     1
102
RTVSPropertyOp9
 70
     1
102
RTVSPropertyOp10
 70
     1
102
RTVSPropertyOp11
 70
     1
102
RTVSPropertyOp12
 70
     1
102
RTVSPropertyOp13
 70
     1
102
RTVSPropertyOp14
 70
     1
102
RTVSPropertyOp15
 70
     1
102
RTVSPropertyOp16
 70
     1
102
RTVSPropertyOp17
 70
     1
102
RTVSPropertyOp18
 70
     1
102
RTVSPropertyOp19
 70
     1
102
RTVSPropertyOp20
 70
     1
102
RTVSPropertyOp21
 70
     1
102
RTVSPropertyOp22
 70
     1
102
RTVSPropertyOp23
 70
     1
102
RTVSPropertyOp24
 70
     1
102
RTVSPropertyOp25
 70
     1
102
RTVSPropertyOp26
 70
     1
102
RTVSPropertyOp27
 70
     1
102
RTVSPropertyOp28
 70
     1
102
RTVSPropertyOp29
 70
     1
102
RTVSPropertyOp30
 70
     1
102
RTVSPropertyOp31
 70
     1
102
RTVSPropertyOp32
 70
     1
  0
XRECORD
  5
239
102
{ACAD_REACTORS
330
238
102
}
330
238
100
AcDbXrecord
280
     1
102
RTVSPropertyOp0
 70
     1
102
RTVSPropertyOp1
 70
     1
102
RTVSPropertyOp2
 70
     1
102
RTVSPropertyOp3
 70
     1
102
RTVSPropertyOp4
 70
     1
102
RTVSPropertyOp5
 70
     1
102
RTVSPropertyOp6
 70
     1
102
RTVSPropertyOp7
 70
     1
102
RTVSPropertyOp8
 70
     1
102
RTVSPropertyOp9
 70
     1
102
RTVSPropertyOp10
 70
     1
102
RTVSPropertyOp11
 70
     1
102
RTVSPropertyOp12
 70
     1
102
RTVSPropertyOp13
 70
     1
102
RTVSPropertyOp14
 70
     1
102
RTVSPropertyOp15
 70
     1
102
RTVSPropertyOp16
 70
     1
102
RTVSPropertyOp17
 70
     1
102
RTVSPropertyOp18
 70
     1
102
RTVSPropertyOp19
 70
     1
102
RTVSPropertyOp20
 70
     1
102
RTVSPropertyOp21
 70
     1
102
RTVSPropertyOp22
 70
     1
102
RTVSPropertyOp23
 70
     1
102
RTVSPropertyOp24
 70
     1
102
RTVSPropertyOp25
 70
     1
102
RTVSPropertyOp26
 70
     1
102
RTVSPropertyOp27
 70
     1
102
RTVSPropertyOp28
 70
     1
102
RTVSPropertyOp29
 70
     1
102
RTVSPropertyOp30
 70
     1
102
RTVSPropertyOp31
 70
     1
102
RTVSPropertyOp32
 70
     1
  0
XRECORD
  5
237
102
{ACAD_REACTORS
330
236
102
}
330
236
100
AcDbXrecord
280
     1
102
RTVSPropertyOp0
 70
     1
102
RTVSPropertyOp1
 70
     1
102
RTVSPropertyOp2
 70
     1
102
RTVSPropertyOp3
 70
     1
102
RTVSPropertyOp4
 70
     1
102
RTVSPropertyOp5
 70
     1
102
RTVSPropertyOp6
 70
     1
102
RTVSPropertyOp7
 70
     1
102
RTVSPropertyOp8
 70
     1
102
RTVSPropertyOp9
 70
     1
102
RTVSPropertyOp10
 70
     1
102
RTVSPropertyOp11
 70
     1
102
RTVSPropertyOp12
 70
     1
102
RTVSPropertyOp13
 70
     1
102
RTVSPropertyOp14
 70
     1
102
RTVSPropertyOp15
 70
     1
102
RTVSPropertyOp16
 70
     1
102
RTVSPropertyOp17
 70
     1
102
RTVSPropertyOp18
 70
     1
102
RTVSPropertyOp19
 70
     1
102
RTVSPropertyOp20
 70
     1
102
RTVSPropertyOp21
 70
     1
102
RTVSPropertyOp22
 70
     1
102
RTVSPropertyOp23
 70
     1
102
RTVSPropertyOp24
 70
     1
102
RTVSPropertyOp25
 70
     1
102
RTVSPropertyOp26
 70
     1
102
RTVSPropertyOp27
 70
     1
102
RTVSPropertyOp28
 70
     1
102
RTVSPropertyOp29
 70
     1
102
RTVSPropertyOp30
 70
     1
102
RTVSPropertyOp31
 70
     1
102
RTVSPropertyOp32
 70
     1
  0
XRECORD
  5
23B
102
{ACAD_REACTORS
330
23A
102
}
330
23A
100
AcDbXrecord
280
     1
102
RTVSPropertyOp0
 70
     1
102
RTVSPropertyOp1
 70
     1
102
RTVSPropertyOp2
 70
     1
102
RTVSPropertyOp3
 70
     1
102
RTVSPropertyOp4
 70
     1
102
RTVSPropertyOp5
 70
     1
102
RTVSPropertyOp6
 70
     1
102
RTVSPropertyOp7
 70
     1
102
RTVSPropertyOp8
 70
     1
102
RTVSPropertyOp9
 70
     1
102
RTVSPropertyOp10
 70
     1
102
RTVSPropertyOp11
 70
     1
102
RTVSPropertyOp12
 70
     1
102
RTVSPropertyOp13
 70
     1
102
RTVSPropertyOp14
 70
     1
102
RTVSPropertyOp15
 70
     1
102
RTVSPropertyOp16
 70
     1
102
RTVSPropertyOp17
 70
     1
102
RTVSPropertyOp18
 70
     1
102
RTVSPropertyOp19
 70
     1
102
RTVSPropertyOp20
 70
     1
102
RTVSPropertyOp21
 70
     1
102
RTVSPropertyOp22
 70
     1
102
RTVSPropertyOp23
 70
     1
102
RTVSPropertyOp24
 70
     1
102
RTVSPropertyOp25
 70
     1
102
RTVSPropertyOp26
 70
     1
102
RTVSPropertyOp27
 70
     1
102
RTVSPropertyOp28
 70
     1
102
RTVSPropertyOp29
 70
     1
102
RTVSPropertyOp30
 70
     1
102
RTVSPropertyOp31
 70
     1
102
RTVSPropertyOp32
 70
     1
  0
XRECORD
  5
243
102
{ACAD_REACTORS
330
242
102
}
330
242
100
AcDbXrecord
280
     1
102
RTVSPropertyOp0
 70
     1
102
RTVSPropertyOp1
 70
     1
102
RTVSPropertyOp2
 70
     1
102
RTVSPropertyOp3
 70
     1
102
RTVSPropertyOp4
 70
     1
102
RTVSPropertyOp5
 70
     1
102
RTVSPropertyOp6
 70
     1
102
RTVSPropertyOp7
 70
     1
102
RTVSPropertyOp8
 70
     1
102
RTVSPropertyOp9
 70
     1
102
RTVSPropertyOp10
 70
     1
102
RTVSPropertyOp11
 70
     1
102
RTVSPropertyOp12
 70
     1
102
RTVSPropertyOp13
 70
     1
102
RTVSPropertyOp14
 70
     1
102
RTVSPropertyOp15
 70
     1
102
RTVSPropertyOp16
 70
     1
102
RTVSPropertyOp17
 70
     1
102
RTVSPropertyOp18
 70
     1
102
RTVSPropertyOp19
 70
     1
102
RTVSPropertyOp20
 70
     1
102
RTVSPropertyOp21
 70
     1
102
RTVSPropertyOp22
 70
     1
102
RTVSPropertyOp23
 70
     1
102
RTVSPropertyOp24
 70
     1
102
RTVSPropertyOp25
 70
     1
102
RTVSPropertyOp26
 70
     1
102
RTVSPropertyOp27
 70
     1
102
RTVSPropertyOp28
 70
     1
102
RTVSPropertyOp29
 70
     1
102
RTVSPropertyOp30
 70
     1
102
RTVSPropertyOp31
 70
     1
102
RTVSPropertyOp32
 70
     1
  0
XRECORD
  5
24B
102
{ACAD_REACTORS
330
24A
102
}
330
24A
100
AcDbXrecord
280
     1
102
RTVSPropertyOp0
 70
     1
102
RTVSPropertyOp1
 70
     1
102
RTVSPropertyOp2
 70
     1
102
RTVSPropertyOp3
 70
     1
102
RTVSPropertyOp4
 70
     1
102
RTVSPropertyOp5
 70
     1
102
RTVSPropertyOp6
 70
     1
102
RTVSPropertyOp7
 70
     1
102
RTVSPropertyOp8
 70
     1
102
RTVSPropertyOp9
 70
     1
102
RTVSPropertyOp10
 70
     1
102
RTVSPropertyOp11
 70
     1
102
RTVSPropertyOp12
 70
     1
102
RTVSPropertyOp13
 70
     1
102
RTVSPropertyOp14
 70
     1
102
RTVSPropertyOp15
 70
     1
102
RTVSPropertyOp16
 70
     1
102
RTVSPropertyOp17
 70
     1
102
RTVSPropertyOp18
 70
     1
102
RTVSPropertyOp19
 70
     1
102
RTVSPropertyOp20
 70
     1
102
RTVSPropertyOp21
 70
     1
102
RTVSPropertyOp22
 70
     1
102
RTVSPropertyOp23
 70
     1
102
RTVSPropertyOp24
 70
     1
102
RTVSPropertyOp25
 70
     1
102
RTVSPropertyOp26
 70
     1
102
RTVSPropertyOp27
 70
     1
102
RTVSPropertyOp28
 70
     1
102
RTVSPropertyOp29
 70
     1
102
RTVSPropertyOp30
 70
     1
102
RTVSPropertyOp31
 70
     1
102
RTVSPropertyOp32
 70
     1
  0
XRECORD
  5
23F
102
{ACAD_REACTORS
330
23E
102
}
330
23E
100
AcDbXrecord
280
     1
102
RTVSPropertyOp0
 70
     1
102
RTVSPropertyOp1
 70
     1
102
RTVSPropertyOp2
 70
     1
102
RTVSPropertyOp3
 70
     1
102
RTVSPropertyOp4
 70
     1
102
RTVSPropertyOp5
 70
     1
102
RTVSPropertyOp6
 70
     1
102
RTVSPropertyOp7
 70
     1
102
RTVSPropertyOp8
 70
     1
102
RTVSPropertyOp9
 70
     1
102
RTVSPropertyOp10
 70
     1
102
RTVSPropertyOp11
 70
     1
102
RTVSPropertyOp12
 70
     1
102
RTVSPropertyOp13
 70
     1
102
RTVSPropertyOp14
 70
     1
102
RTVSPropertyOp15
 70
     1
102
RTVSPropertyOp16
 70
     1
102
RTVSPropertyOp17
 70
     1
102
RTVSPropertyOp18
 70
     1
102
RTVSPropertyOp19
 70
     1
102
RTVSPropertyOp20
 70
     1
102
RTVSPropertyOp21
 70
     1
102
RTVSPropertyOp22
 70
     1
102
RTVSPropertyOp23
 70
     1
102
RTVSPropertyOp24
 70
     1
102
RTVSPropertyOp25
 70
     1
102
RTVSPropertyOp26
 70
     1
102
RTVSPropertyOp27
 70
     1
102
RTVSPropertyOp28
 70
     1
102
RTVSPropertyOp29
 70
     1
102
RTVSPropertyOp30
 70
     1
102
RTVSPropertyOp31
 70
     1
102
RTVSPropertyOp32
 70
     1
  0
XRECORD
  5
241
102
{ACAD_REACTORS
330
240
102
}
330
240
100
AcDbXrecord
280
     1
102
RTVSPropertyOp0
 70
     1
102
RTVSPropertyOp1
 70
     1
102
RTVSPropertyOp2
 70
     1
102
RTVSPropertyOp3
 70
     1
102
RTVSPropertyOp4
 70
     1
102
RTVSPropertyOp5
 70
     1
102
RTVSPropertyOp6
 70
     1
102
RTVSPropertyOp7
 70
     1
102
RTVSPropertyOp8
 70
     1
102
RTVSPropertyOp9
 70
     1
102
RTVSPropertyOp10
 70
     1
102
RTVSPropertyOp11
 70
     1
102
RTVSPropertyOp12
 70
     1
102
RTVSPropertyOp13
 70
     1
102
RTVSPropertyOp14
 70
     1
102
RTVSPropertyOp15
 70
     1
102
RTVSPropertyOp16
 70
     1
102
RTVSPropertyOp17
 70
     1
102
RTVSPropertyOp18
 70
     1
102
RTVSPropertyOp19
 70
     1
102
RTVSPropertyOp20
 70
     1
102
RTVSPropertyOp21
 70
     1
102
RTVSPropertyOp22
 70
     1
102
RTVSPropertyOp23
 70
     1
102
RTVSPropertyOp24
 70
     1
102
RTVSPropertyOp25
 70
     1
102
RTVSPropertyOp26
 70
     1
102
RTVSPropertyOp27
 70
     1
102
RTVSPropertyOp28
 70
     1
102
RTVSPropertyOp29
 70
     1
102
RTVSPropertyOp30
 70
     1
102
RTVSPropertyOp31
 70
     1
102
RTVSPropertyOp32
 70
     1
  0
XRECORD
  5
249
102
{ACAD_REACTORS
330
248
102
}
330
248
100
AcDbXrecord
280
     1
102
RTVSPropertyOp0
 70
     1
102
RTVSPropertyOp1
 70
     1
102
RTVSPropertyOp2
 70
     1
102
RTVSPropertyOp3
 70
     1
102
RTVSPropertyOp4
 70
     1
102
RTVSPropertyOp5
 70
     1
102
RTVSPropertyOp6
 70
     1
102
RTVSPropertyOp7
 70
     1
102
RTVSPropertyOp8
 70
     1
102
RTVSPropertyOp9
 70
     1
102
RTVSPropertyOp10
 70
     1
102
RTVSPropertyOp11
 70
     1
102
RTVSPropertyOp12
 70
     1
102
RTVSPropertyOp13
 70
     1
102
RTVSPropertyOp14
 70
     1
102
RTVSPropertyOp15
 70
     1
102
RTVSPropertyOp16
 70
     1
102
RTVSPropertyOp17
 70
     1
102
RTVSPropertyOp18
 70
     1
102
RTVSPropertyOp19
 70
     1
102
RTVSPropertyOp20
 70
     1
102
RTVSPropertyOp21
 70
     1
102
RTVSPropertyOp22
 70
     1
102
RTVSPropertyOp23
 70
     1
102
RTVSPropertyOp24
 70
     1
102
RTVSPropertyOp25
 70
     1
102
RTVSPropertyOp26
 70
     1
102
RTVSPropertyOp27
 70
     1
102
RTVSPropertyOp28
 70
     1
102
RTVSPropertyOp29
 70
     1
102
RTVSPropertyOp30
 70
     1
102
RTVSPropertyOp31
 70
     1
102
RTVSPropertyOp32
 70
     1
  0
XRECORD
  5
22D
102
{ACAD_REACTORS
330
22C
102
}
330
22C
100
AcDbXrecord
280
     1
102
RTVSPropertyOp0
 70
     1
102
RTVSPropertyOp1
 70
     1
102
RTVSPropertyOp2
 70
     1
102
RTVSPropertyOp3
 70
     1
102
RTVSPropertyOp4
 70
     1
102
RTVSPropertyOp5
 70
     1
102
RTVSPropertyOp6
 70
     1
102
RTVSPropertyOp7
 70
     1
102
RTVSPropertyOp8
 70
     1
102
RTVSPropertyOp9
 70
     1
102
RTVSPropertyOp10
 70
     1
102
RTVSPropertyOp11
 70
     1
102
RTVSPropertyOp12
 70
     1
102
RTVSPropertyOp13
 70
     1
102
RTVSPropertyOp14
 70
     1
102
RTVSPropertyOp15
 70
     1
102
RTVSPropertyOp16
 70
     1
102
RTVSPropertyOp17
 70
     1
102
RTVSPropertyOp18
 70
     1
102
RTVSPropertyOp19
 70
     1
102
RTVSPropertyOp20
 70
     1
102
RTVSPropertyOp21
 70
     1
102
RTVSPropertyOp22
 70
     1
102
RTVSPropertyOp23
 70
     1
102
RTVSPropertyOp24
 70
     1
102
RTVSPropertyOp25
 70
     1
102
RTVSPropertyOp26
 70
     1
102
RTVSPropertyOp27
 70
     1
102
RTVSPropertyOp28
 70
     1
102
RTVSPropertyOp29
 70
     1
102
RTVSPropertyOp30
 70
     1
102
RTVSPropertyOp31
 70
     1
102
RTVSPropertyOp32
 70
     1
  0
XRECORD
  5
22F
102
{ACAD_REACTORS
330
22E
102
}
330
22E
100
AcDbXrecord
280
     1
102
RTVSPropertyOp0
 70
     1
102
RTVSPropertyOp1
 70
     1
102
RTVSPropertyOp2
 70
     1
102
RTVSPropertyOp3
 70
     1
102
RTVSPropertyOp4
 70
     1
102
RTVSPropertyOp5
 70
     1
102
RTVSPropertyOp6
 70
     1
102
RTVSPropertyOp7
 70
     1
102
RTVSPropertyOp8
 70
     1
102
RTVSPropertyOp9
 70
     1
102
RTVSPropertyOp10
 70
     1
102
RTVSPropertyOp11
 70
     1
102
RTVSPropertyOp12
 70
     1
102
RTVSPropertyOp13
 70
     1
102
RTVSPropertyOp14
 70
     1
102
RTVSPropertyOp15
 70
     1
102
RTVSPropertyOp16
 70
     1
102
RTVSPropertyOp17
 70
     1
102
RTVSPropertyOp18
 70
     1
102
RTVSPropertyOp19
 70
     1
102
RTVSPropertyOp20
 70
     1
102
RTVSPropertyOp21
 70
     1
102
RTVSPropertyOp22
 70
     1
102
RTVSPropertyOp23
 70
     1
102
RTVSPropertyOp24
 70
     1
102
RTVSPropertyOp25
 70
     1
102
RTVSPropertyOp26
 70
     1
102
RTVSPropertyOp27
 70
     1
102
RTVSPropertyOp28
 70
     1
102
RTVSPropertyOp29
 70
     1
102
RTVSPropertyOp30
 70
     1
102
RTVSPropertyOp31
 70
     1
102
RTVSPropertyOp32
 70
     1
  0
XRECORD
  5
231
102
{ACAD_REACTORS
330
230
102
}
330
230
100
AcDbXrecord
280
     1
102
RTVSPropertyOp0
 70
     1
102
RTVSPropertyOp1
 70
     1
102
RTVSPropertyOp2
 70
     1
102
RTVSPropertyOp3
 70
     1
102
RTVSPropertyOp4
 70
     1
102
RTVSPropertyOp5
 70
     1
102
RTVSPropertyOp6
 70
     1
102
RTVSPropertyOp7
 70
     1
102
RTVSPropertyOp8
 70
     1
102
RTVSPropertyOp9
 70
     1
102
RTVSPropertyOp10
 70
     1
102
RTVSPropertyOp11
 70
     1
102
RTVSPropertyOp12
 70
     1
102
RTVSPropertyOp13
 70
     1
102
RTVSPropertyOp14
 70
     1
102
RTVSPropertyOp15
 70
     1
102
RTVSPropertyOp16
 70
     1
102
RTVSPropertyOp17
 70
     1
102
RTVSPropertyOp18
 70
     1
102
RTVSPropertyOp19
 70
     1
102
RTVSPropertyOp20
 70
     1
102
RTVSPropertyOp21
 70
     1
102
RTVSPropertyOp22
 70
     1
102
RTVSPropertyOp23
 70
     1
102
RTVSPropertyOp24
 70
     1
102
RTVSPropertyOp25
 70
     1
102
RTVSPropertyOp26
 70
     1
102
RTVSPropertyOp27
 70
     1
102
RTVSPropertyOp28
 70
     1
102
RTVSPropertyOp29
 70
     1
102
RTVSPropertyOp30
 70
     1
102
RTVSPropertyOp31
 70
     1
102
RTVSPropertyOp32
 70
     1
  0
XRECORD
  5
233
102
{ACAD_REACTORS
330
232
102
}
330
232
100
AcDbXrecord
280
     1
102
RTVSPropertyOp0
 70
     1
102
RTVSPropertyOp1
 70
     1
102
RTVSPropertyOp2
 70
     1
102
RTVSPropertyOp3
 70
     1
102
RTVSPropertyOp4
 70
     1
102
RTVSPropertyOp5
 70
     1
102
RTVSPropertyOp6
 70
     1
102
RTVSPropertyOp7
 70
     1
102
RTVSPropertyOp8
 70
     1
102
RTVSPropertyOp9
 70
     1
102
RTVSPropertyOp10
 70
     1
102
RTVSPropertyOp11
 70
     1
102
RTVSPropertyOp12
 70
     1
102
RTVSPropertyOp13
 70
     1
102
RTVSPropertyOp14
 70
     1
102
RTVSPropertyOp15
 70
     1
102
RTVSPropertyOp16
 70
     1
102
RTVSPropertyOp17
 70
     1
102
RTVSPropertyOp18
 70
     1
102
RTVSPropertyOp19
 70
     1
102
RTVSPropertyOp20
 70
     1
102
RTVSPropertyOp21
 70
     1
102
RTVSPropertyOp22
 70
     1
102
RTVSPropertyOp23
 70
     1
102
RTVSPropertyOp24
 70
     1
102
RTVSPropertyOp25
 70
     1
102
RTVSPropertyOp26
 70
     1
102
RTVSPropertyOp27
 70
     1
102
RTVSPropertyOp28
 70
     1
102
RTVSPropertyOp29
 70
     1
102
RTVSPropertyOp30
 70
     1
102
RTVSPropertyOp31
 70
     1
102
RTVSPropertyOp32
 70
     1
  0
XRECORD
  5
247
102
{ACAD_REACTORS
330
246
102
}
330
246
100
AcDbXrecord
280
     1
102
RTVSPropertyOp0
 70
     1
102
RTVSPropertyOp1
 70
     1
102
RTVSPropertyOp2
 70
     1
102
RTVSPropertyOp3
 70
     1
102
RTVSPropertyOp4
 70
     1
102
RTVSPropertyOp5
 70
     1
102
RTVSPropertyOp6
 70
     1
102
RTVSPropertyOp7
 70
     1
102
RTVSPropertyOp8
 70
     1
102
RTVSPropertyOp9
 70
     1
102
RTVSPropertyOp10
 70
     1
102
RTVSPropertyOp11
 70
     1
102
RTVSPropertyOp12
 70
     1
102
RTVSPropertyOp13
 70
     1
102
RTVSPropertyOp14
 70
     1
102
RTVSPropertyOp15
 70
     1
102
RTVSPropertyOp16
 70
     1
102
RTVSPropertyOp17
 70
     1
102
RTVSPropertyOp18
 70
     1
102
RTVSPropertyOp19
 70
     1
102
RTVSPropertyOp20
 70
     1
102
RTVSPropertyOp21
 70
     1
102
RTVSPropertyOp22
 70
     1
102
RTVSPropertyOp23
 70
     1
102
RTVSPropertyOp24
 70
     1
102
RTVSPropertyOp25
 70
     1
102
RTVSPropertyOp26
 70
     1
102
RTVSPropertyOp27
 70
     1
102
RTVSPropertyOp28
 70
     1
102
RTVSPropertyOp29
 70
     1
102
RTVSPropertyOp30
 70
     1
102
RTVSPropertyOp31
 70
     1
102
RTVSPropertyOp32
 70
     1
  0
XRECORD
  5
23D
102
{ACAD_REACTORS
330
23C
102
}
330
23C
100
AcDbXrecord
280
     1
102
RTVSPropertyOp0
 70
     1
102
RTVSPropertyOp1
 70
     1
102
RTVSPropertyOp2
 70
     1
102
RTVSPropertyOp3
 70
     1
102
RTVSPropertyOp4
 70
     1
102
RTVSPropertyOp5
 70
     1
102
RTVSPropertyOp6
 70
     1
102
RTVSPropertyOp7
 70
     1
102
RTVSPropertyOp8
 70
     1
102
RTVSPropertyOp9
 70
     1
102
RTVSPropertyOp10
 70
     1
102
RTVSPropertyOp11
 70
     1
102
RTVSPropertyOp12
 70
     1
102
RTVSPropertyOp13
 70
     1
102
RTVSPropertyOp14
 70
     1
102
RTVSPropertyOp15
 70
     1
102
RTVSPropertyOp16
 70
     1
102
RTVSPropertyOp17
 70
     1
102
RTVSPropertyOp18
 70
     1
102
RTVSPropertyOp19
 70
     1
102
RTVSPropertyOp20
 70
     1
102
RTVSPropertyOp21
 70
     1
102
RTVSPropertyOp22
 70
     1
102
RTVSPropertyOp23
 70
     1
102
RTVSPropertyOp24
 70
     1
102
RTVSPropertyOp25
 70
     1
102
RTVSPropertyOp26
 70
     1
102
RTVSPropertyOp27
 70
     1
102
RTVSPropertyOp28
 70
     1
102
RTVSPropertyOp29
 70
     1
102
RTVSPropertyOp30
 70
     1
102
RTVSPropertyOp31
 70
     1
102
RTVSPropertyOp32
 70
     1
  0
XRECORD
  5
245
102
{ACAD_REACTORS
330
244
102
}
330
244
100
AcDbXrecord
280
     1
102
RTVSPropertyOp0
 70
     1
102
RTVSPropertyOp1
 70
     1
102
RTVSPropertyOp2
 70
     1
102
RTVSPropertyOp3
 70
     1
102
RTVSPropertyOp4
 70
     1
102
RTVSPropertyOp5
 70
     1
102
RTVSPropertyOp6
 70
     1
102
RTVSPropertyOp7
 70
     1
102
RTVSPropertyOp8
 70
     1
102
RTVSPropertyOp9
 70
     1
102
RTVSPropertyOp10
 70
     1
102
RTVSPropertyOp11
 70
     1
102
RTVSPropertyOp12
 70
     1
102
RTVSPropertyOp13
 70
     1
102
RTVSPropertyOp14
 70
     1
102
RTVSPropertyOp15
 70
     1
102
RTVSPropertyOp16
 70
     1
102
RTVSPropertyOp17
 70
     1
102
RTVSPropertyOp18
 70
     1
102
RTVSPropertyOp19
 70
     1
102
RTVSPropertyOp20
 70
     1
102
RTVSPropertyOp21
 70
     1
102
RTVSPropertyOp22
 70
     1
102
RTVSPropertyOp23
 70
     1
102
RTVSPropertyOp24
 70
     1
102
RTVSPropertyOp25
 70
     1
102
RTVSPropertyOp26
 70
     1
102
RTVSPropertyOp27
 70
     1
102
RTVSPropertyOp28
 70
     1
102
RTVSPropertyOp29
 70
     1
102
RTVSPropertyOp30
 70
     1
102
RTVSPropertyOp31
 70
     1
102
RTVSPropertyOp32
 70
     1
  0
ENDSEC
  0
EOF
